Космический зонд Телец / Космический монстр / Space Probe Taurus / Space Monster (Леонард Кацман / Leonard Katzman) [1965, США, ужасы, фантастика, TVRip] VO (Трамвай-фильм)

DL-List and Torrent activity
Size:  981 MB   |    Registered:  2 years 10 months   |    Completed:  16 times
Seeders:  5  
 
   
 
 

Max Levien ®

Longevity:
2 years 10 months
Posts:
20374

[Quote] 

Космический зонд Телец / Космический монстр (ТВ)Space Probe Taurus / Space Monster«Horror so incredible it stretches the mind of man beyond the breaking point»- Страна: США
Жанр: ужасы, фантастика
Год выпуска: 1965
Продолжительность: 01:20:56-Перевод: Одноголосый закадровый (Трамвай-фильмй)
Режиссер: Леонард Кацман / Leonard Katzman
В ролях:
Френсин Йорк
Джеймс Браун
Бэйнес Баррон
Расс Бендер
Джон Уиллис
Боб Леджионер
Джеймс Маклин
Филлис Зелцник
John Lomma
Jimmy Bracon-Описание: Космический аппарат «Вера-1» погибает при исследование отдаленной планеты, с кодовым названием «Телец» (Taurus). Однако, американское правительство не сдается и отправляет на злосчастную планету второй экипаж на более совершенном корабле «Надежда-1». Почти с самого начала пути астронавтов преследуют неприятности, самая незначительная из которых - сложные межличностные отношения. А самая серьезная - космические чудовища.-

Sample-Качество: TVRip
Контейнер: AVI
Видео: XviD, 640x480 (4:3), 1549 kbps, 29,970 fps, 0,168 bpp
Аудио: MP3 / 2.0 / 44 kHz / 128 kbps /-

Скриншот с названием фильма

Скриншоты

Media Info

General
Complete name : Космозонд.Телец.avi
Format : AVI
Format/Info : Audio Video Interleave
File size : 981 MiB
Duration : 1h 20mn
Overall bit rate : 1 695 Kbps
Video
ID : 0
Format : MPEG-4 Visual
Format profile : [email protected]
Format settings, BVOP : No
Format settings, QPel : No
Format settings, GMC : No warppoints
Format settings, Matrix : Default (H.263)
Codec ID : XVID
Codec ID/Hint : XviD
Duration : 1h 20mn
Bit rate : 1 549 Kbps
Width : 640 pixels
Height : 480 pixels
Display aspect ratio : 4:3
Frame rate : 29.970 fps
Original frame rate : 29.000 fps
Color space : YUV
Chroma subsampling : 4:2:0
Bit depth : 8 bits
Scan type : Progressive
Compression mode : Lossy
Bits/(Pixel*Frame) : 0.168
Stream size : 897 MiB (91%)
Writing library : XviD 1.2.1 (UTC 2008-12-04)
Audio
ID : 1
Format : MPEG Audio
Format version : Version 1
Format profile : Layer 3
Mode : Joint stereo
Mode extension : MS Stereo
Codec ID : 55
Codec ID/Hint : MP3
Duration : 1h 20mn
Bit rate mode : Constant
Bit rate : 128 Kbps
Channel(s) : 2 channels
Sampling rate : 44.1 KHz
Compression mode : Lossy
Stream size : 74.1 MiB (8%)
Alignment : Aligned on interleaves
Interleave, duration : 26 ms (0.78 video frame)
Writing library : LAME3.98.2

If your ratio falls below 0.3, you will not be able to download Torrents! More about the rating.

[erzsebet.pl].t51859.torrent
Torrent: Registered   [ 2017-12-11 02:36 ]

Download .torrent

Download

20 KB

Status: checked
Completed: 16 times
Size: 981 MB
terms.php

#1

11-Dec-2017 01:25

[Profile]  [PM] 
Display posts:    

You cannot post new topics in this forum
You cannot reply to topics in this forum
You cannot edit your posts in this forum
You cannot delete your posts in this forum
You cannot vote in polls in this forum
You cannot attach files in this forum
You can download files in this forum
User agreement
For copyright holders
Advertise on this site

Скачайте на халяву через торрент на трекере erzsebet.pl

!ATTENTION!
The site does not give electronic versions of products, and is engaged only in a collecting and cataloguing of the references sent and published at a forum by our readers. If you are the legal owner of any submitted material and do not wish that the reference to it was in our catalogue, contact us and we shall immediately remove her. Files for an exchange on tracker are given by users of a site, and the administration does not bear the responsibility for their maintenance. The request to not fill in the files protected by copyrights, and also files of the illegal maintenance!