Те, кто всё решают / Война крёстных отцов / Quelli che contano / The Ones Who Count / Cry of a Prostitute (Андреа Бьянки / Andrea Bianchi) [1974, Италия, драма, криминал, DVDRip] VO (Horror Maker) + Original (Ita)

DL-List and Torrent activity
Size:  1.52 GB   |    Registered:  2 years 10 months   |    Completed:  16 times
Seeders:  3  
 
   
 
 

Max Levien ®

Longevity:
2 years 10 months
Posts:
20374

[Quote] 

Те, кто всё решаютQuelli che contano
Страна: Италия
Жанр: драма, криминал
Год выпуска: 1974
Продолжительность: 01:33:18
Перевод: Одноголосый (закадровый) Horror Maker
Субтитры: нет
Оригинальная аудиодорожка: итальянский
Режиссер: Андреа Бьянки / Andrea Bianchi
В ролях: Хенри Сильва / Henry Silva, Барбара Буше / Barbara Bouchet, Фаусто Тоцци / Fausto Tozzi, Витторио Саниполи / Vittorio Sanipoli, Марио Ланди / Mario Landi, Мауро Риги / Mauro Righi, Дада Галлотти / Dada Gallotti, Патриция Гори / Patrizia Gori, Пьер Мария Росси / Pier Maria Rossi, Альфредо Пеа / Alfredo Pea, Пьетро Торризи / Pietro Torrisi, Армандо Боттин / Armando Bottin, Джанкарло Дель Дука / Giancarlo Del Duca, Карла Манчини / Carla Mancini, Орацио Стракуцци / Orazio Stracuzzi, Энрико Марчани / Enrico Marciani, Дженнарино Паппагалли / Gennarino Pappagalli, Джузеппе Намио / Giuseppe Namio, Романо Милани / Romano Milani, Энрико Миотти / Enrico Miotti, Бруно Сальви / Bruno Salvi, Ремо Пиццарони / Remo Pizzaroni, Фортунато Арена / Fortunato Arena, Бруно Арие / Bruno Arie, Роберто Мессина / Roberto Messina, Серджо Тестори / Sergio Testori, Омеро Капанна / Omero Capanna
Описание: В результате случайной автомобильной аварии стало известно, что кто-то из сицилийских мафиози для контрабанды наркотиков использует тела мёртвых детей, в которые зашивался товар. Этот факт всколыхнул не только общественность и полицию, но и боссов семейств. На всеобщей сходке дону Кашеми было поручено разобраться с этим грязным делом, поскольку всё произошло на подконтрольной ему территории. Кашеми в свою очередь нашёл для решения проблемы подходящего человека - Тони Анианте, долгое время жившего в Америке и лишь сейчас вернувшегося на Сицилию. Дело осложняется тем, что на этой территории идёт непримиримая вражда между доном Рикуццо Кантимо и доном Тури Сканнапьеко.
Доп. информация: Перевод фильма осуществлён благодаря пользователям сайта Cinemascope, большое спасибо всем участникам.
Видео взято с "Феникса", а перед тем оно было выложено на сайте greenpig. Автор рипа - GREENPIG.
Раздача сделана по просьбе aldoror.

Sample
Качество видео: DVDRip (исходник неизвестен)
Формат видео: AVI
Видео: 720×320 (2.25:1), 25 fps, XviD MPEG-4 Visual, ~1943 kbps avg, 0.337 bit/pixel
Аудио 1: 48 kHz, AC3 Dolby Digital, 2 ch, 192 kbps - Rus
Аудио 2: 48 kHz, AC3 Dolby Digital, 2 ch, 192 kbps - Ita (отдельно)
Формат субтитров: softsub (SRT)

МедиаИнфо

Общее
Полное имя : D:\Те, кто всё решают [Quelli che contano] ( 1974) [VO (Horror Maker) +Ita] DVDRip\Quelli_che_contano_1974_VO_Horror Maker.avi
Формат : AVI
Формат/Информация : Audio Video Interleave
Размер файла : 1,40 Гбайт
Продолжительность : 1 ч. 33 м.
Общий поток : 2146 Кбит/сек
Программа кодирования : VirtualDubMod 1.5.10.2 (build 2540/release)
Библиотека кодирования : VirtualDubMod build 2540/release
Видео
Идентификатор : 0
Формат : MPEG-4 Visual
Профиль формата : Advanced [email protected]
Параметр BVOP формата : 1
Параметр QPel формата : Нет
Параметр GMC формата : Без точки перехода
Параметр матрицы формата : Выборочная
Идентификатор кодека : XVID
Идентификатор кодека/Подсказка : XviD
Продолжительность : 1 ч. 33 м.
Битрейт : 1944 Кбит/сек
Ширина : 720 пикселей
Высота : 320 пикселей
Соотношение сторон : 2,25:1
Частота кадров : 25,000 кадров/сек
Цветовое пространство : YUV
Субдискретизация насыщенности : 4:2:0
Битовая глубина : 8 бит
Тип развёртки : Прогрессивная
Метод сжатия : С потерями
Бит/(Пиксели*Кадры) : 0.337
Размер потока : 1,27 Гбайт (91%)
Библиотека кодирования : XviD 64
Аудио
Идентификатор : 1
Формат : AC-3
Формат/Информация : Audio Coding 3
Расширение режима : CM (complete main)
Параметр Endianness формата : Big
Идентификатор кодека : 2000
Продолжительность : 1 ч. 33 м.
Вид битрейта : Постоянный
Битрейт : 192 Кбит/сек
Каналы : 2 канала
Расположение каналов : Front: L R
Частота : 48,0 КГц
Битовая глубина : 16 бит
Метод сжатия : С потерями
Размер потока : 128 Мбайт (9%)
Выравнивание : Разделение по промежуткам
Продолжительность промежутка : 40 мс. (1,00 видеокадр)
Время предзагрузки промежутка : 500 мс.

Скриншот с названием фильма

Ещё постеры


If your ratio falls below 0.3, you will not be able to download Torrents! More about the rating.

[erzsebet.pl].t51861.torrent
Torrent: Registered   [ 2017-12-11 02:36 ]

Download .torrent

Download

16 KB

Status: checked
Completed: 16 times
Size: 1.52 GB
terms.php

#1

11-Dec-2017 01:25

[Profile]  [PM] 
Display posts:    

You cannot post new topics in this forum
You cannot reply to topics in this forum
You cannot edit your posts in this forum
You cannot delete your posts in this forum
You cannot vote in polls in this forum
You cannot attach files in this forum
You can download files in this forum
User agreement
For copyright holders
Advertise on this site

Скачайте на халяву через торрент на трекере erzsebet.pl

!ATTENTION!
The site does not give electronic versions of products, and is engaged only in a collecting and cataloguing of the references sent and published at a forum by our readers. If you are the legal owner of any submitted material and do not wish that the reference to it was in our catalogue, contact us and we shall immediately remove her. Files for an exchange on tracker are given by users of a site, and the administration does not bear the responsibility for their maintenance. The request to not fill in the files protected by copyrights, and also files of the illegal maintenance!