Эрнест идет в тюрьму / Эрнест садится в тюрьму / Ernest Goes to Jail (Джон Р. Черри III / John R. Cherry III) [1990, США, Комедия, криминал, семейный, VHSRip] [FullScreen] AVO (Л. Володарский)

DL-List and Torrent activity
Size:  1.37 GB   |    Registered:  2 years 10 months   |    Completed:  16 times
Seeders:  2  
 
   
 
 

Max Levien ®

Longevity:
2 years 10 months
Posts:
20374

[Quote] 

Эрнест идет в тюрьму / Эрнест садится в тюрьму / Ernest Goes to Jail
[FullScreen]
Страна: США
Жанр: Комедия, криминал, семейный
Год выпуска: 1990
Продолжительность: 01:21:10
Перевод: Авторский (одноголосый закадровый) Л. Володарский
(перевел название - Эрнест садится в тюрьму)
Субтитры: нет
Режиссер: Джон Р. Черри III / John R. Cherry III
В ролях: Джим Варни, Гейлард Сартейн, Бил Бердж, Барбара Тайсон, Бэрри Скотт, Рэндал «Текс» Кобб, Ден Льеджант, Чарльз Нэпьер, Джим Конрад, Джеки Уэлш, Мелани Вилер, Джеффри Бакнер Форд, Дэниэл Батлер, Чарли Ламб, Мак Беннетт, Рик Шульман
Описание: Аннотация от alenavova
Третий по счету фильм про Эрнеста П.Уоррелла многие критики считают наиболее удачной картиной киносериала. Другие ограничиваются оценкой "единственная удачная работа". Третьи к своим положительным отзывам добавляют: "Отношение к фильму зависит от вашего возраста и вашего Ай-Кью" (IQ - аббревиатура, означающая уровень умственного развития, который определяется специальными психологическими тестами). Нелишне подметить, что каждая картина сериала входила в сотню ведущих коммерческих фильмов по результатам кинопроката за год. В этой серии Джим Варни играет двойную роль. Обычную - Эрнеста, который работает уборщиком в банке. И необычную - жуткого злодея, который наводит страх на всю тюрьму, в которой сидит. Разумеется, приходит день, когда уголовник выбирается из камеры, а бедный Эрнест оказывается за решеткой.
Доп. информация: Оцифровка VHS (личный архив) и получение VHSRip alenavova
Эксклюзив для erzsebet.org. При размещении данного релиза на других сайтах ссылка на автора alenavova обязательна.
Релиз
Сэмпл: https://yadi.sk/i/zx6rX5kLkCg7G
Качество видео: VHSRip
Формат видео: AVI
Видео: 704x528 (1.33:1), 25 fps, XviD build 50 ~2208 kbps avg, 0.24 bit/pixel
Аудио: 48 kHz, AC3 Dolby Digital, 2/0 (L,R) ch, ~192 kbps

MediaInfo

Эрнест садится в тюрьму - Ernest Goes to Jail (by alenavova).avi
Format : AVI
Format/Info : Audio Video Interleave
File size : 1.37 GiB
Duration : 1h 21mn
Overall bit rate : 2 410 Kbps
Movie name : Эрнест садится в тюрьму - Ernest Goes to Jail (by alenavova)
Director : by alenavova
Writing application : VirtualDubMod 1.5.10.3 | www.virtualdub-fr.org || (build 2550/release)
Copyright : Edich2
Comment : erzsebet.org
Video
ID : 0
Format : MPEG-4 Visual
Format profile : Advanced [email protected]
Format settings, BVOP : 1
Format settings, QPel : No
Format settings, GMC : No warppoints
Format settings, Matrix : Default (MPEG)
Codec ID : XVID
Codec ID/Hint : XviD
Duration : 1h 21mn
Bit rate : 2 209 Kbps
Width : 704 pixels
Height : 528 pixels
Display aspect ratio : 4:3
Frame rate : 25.000 fps
Color space : YUV
Chroma subsampling : 4:2:0
Bit depth : 8 bits
Scan type : Progressive
Compression mode : Lossy
Bits/(Pixel*Frame) : 0.238
Stream size : 1.25 GiB (92%)
Writing library : XviD 1.2.1 (UTC 2008-12-04)
Audio
ID : 1
Format : AC-3
Format/Info : Audio Coding 3
Mode extension : CM (complete main)
Format settings, Endianness : Big
Codec ID : 2000
Duration : 1h 21mn
Bit rate mode : Constant
Bit rate : 192 Kbps
Channel(s) : 2 channels
Channel positions : Front: L R
Sampling rate : 48.0 KHz
Bit depth : 16 bits
Compression mode : Lossy
Stream size : 111 MiB (8%)
Alignment : Split accross interleaves
Interleave, duration : 40 ms (1.00 video frame)
Interleave, preload duration : 500 ms

Скриншоты



If your ratio falls below 0.3, you will not be able to download Torrents! More about the rating.

[erzsebet.pl].t51866.torrent
Torrent: Registered   [ 2017-12-11 02:36 ]

Download .torrent

Download

14 KB

Status: checked
Completed: 16 times
Size: 1.37 GB
terms.php

#1

11-Dec-2017 01:25

[Profile]  [PM] 
Display posts:    

You cannot post new topics in this forum
You cannot reply to topics in this forum
You cannot edit your posts in this forum
You cannot delete your posts in this forum
You cannot vote in polls in this forum
You cannot attach files in this forum
You can download files in this forum
User agreement
For copyright holders
Advertise on this site

Скачайте на халяву через торрент на трекере erzsebet.pl

!ATTENTION!
The site does not give electronic versions of products, and is engaged only in a collecting and cataloguing of the references sent and published at a forum by our readers. If you are the legal owner of any submitted material and do not wish that the reference to it was in our catalogue, contact us and we shall immediately remove her. Files for an exchange on tracker are given by users of a site, and the administration does not bear the responsibility for their maintenance. The request to not fill in the files protected by copyrights, and also files of the illegal maintenance!