Сабина Клейст, 7 лет / Sabine Kleist, sieben Jahre (Гельмут Дзюба / Helmut Dziuba) [1982, Германия (ГДР), Драма, Семейный, DVDRip] VO + Sub Rus + Original Ger

DL-List and Torrent activity
Size:  970 MB   |    Registered:  2 years 10 months   |    Completed:  16 times
Seeders:  2  
 
   
 
 

Max Levien ®

Longevity:
2 years 10 months
Posts:
20374

[Quote] 

Сабина Клейст, 7 лет / Sabine Kleist, sieben Jahre
Страна: Германия (ГДР)
Жанр: Драма, Семейный
Год выпуска: 1982
Продолжительность: 01:09:28
Перевод: Одноголосый закадровый
Субтитры: русские
Оригинальная аудиодорожка: немецкий
Режиссер: Гельмут Дзюба / Helmut Dziuba
В ролях: Петра Лемель / Petra Lämmel, Симона фон Цглиники / Simone von Zglinicki, Мартин Треттау / Martin Trettau, Петра Бартел / Petra Barthel, Дитмар Баушке / Dietmar Bauschke, Ивар Бир / Ivar Beer, Гарри Бенд / Harry Bend, Карл Хайнц Хойнски / Carl Heinz Choynski, Йоханна Цлас / Johanna Clas, Петер Цвилаг / Peter Cwielag и др.
Описание: У 7-летней Сабины в результате несчастного случая погибли родители. Воспитательницу в детском доме Эдит Сабина считает своей второй матерью. Когда же Эдит забеременела и оставила профессию, Сабина убегает. 2 дня и 2 ночи разъезжает она по Берлину и пытается установить контакт с чужими людьми. Она побывает и в цирке, и в церкви. Еще она помогает и другим, например, маленькому польскому мальчику, который потерял из виду своих родителей. Но в конце концов, она приходит к какому-то пониманию и возвращается в детский дом...
Доп. информация: Фильм взят отсюда http://erzsebet.org/forum/viewtopic.php?t=4093007
Сэмпл: http://sendfile.su/915439
Качество видео: DVDRip
Формат видео: AVI
Видео: 704x416 (1.69:1), 25 fps, XviD MPEG-4 ~1519 kbps avg, 0.21 bit/pixel
Аудио 1: 48 kHz, AC3 Dolby Digital, 2/0 (L,R) ch, ~192.00 kbps avg(Русский)
Аудио 2: 48 kHz, AC3 Dolby Digital, 2/0 (L,R) ch, ~192.00 kbps avg(Немецкий)

MediaInfo

Общее
Полное имя : D:\Мои видеозаписи\Сабина Клейст\Sabine Kleist.avi
Формат : AVI
Формат/Информация : Audio Video Interleave
Размер файла : 953 Мбайт
Продолжительность : 1 ч. 9 м.
Общий поток : 1919 Кбит/сек
Программа кодирования : VirtualDubModRus 1.5.10.2 (build 2542/release)
Библиотека кодирования : VirtualDubMod build 2542/release
Видео
Идентификатор : 0
Формат : MPEG-4 Visual
Профиль формата : Advanced [email protected]
Параметр BVOP формата : 1
Параметр QPel формата : Нет
Параметр GMC формата : Без точки перехода
Параметр матрицы формата : Default (MPEG)
Режим смешивания : Сжатый битовый поток
Идентификатор кодека : XVID
Идентификатор кодека/Подсказка : XviD
Продолжительность : 1 ч. 9 м.
Битрейт : 1521 Кбит/сек
Ширина : 704 пикселя
Высота : 416 пикселей
Соотношение сторон : 1,692
Частота кадров : 25,000 кадров/сек
Цветовое пространство : YUV
Субдискретизация насыщенности : 4:2:0
Битовая глубина : 8 бит
Тип развёртки : Прогрессивная
Метод сжатия : С потерями
Бит/(Пиксели*Кадры) : 0.208
Размер потока : 756 Мбайт (79%)
Библиотека кодирования : XviD 1.2.0.dev47 (UTC 2006-11-01)
Аудио #1
Идентификатор : 1
Формат : AC-3
Формат/Информация : Audio Coding 3
Расширение режима : CM (complete main)
Идентификатор кодека : 2000
Продолжительность : 1 ч. 9 м.
Вид битрейта : Постоянный
Битрейт : 192 Кбит/сек
Каналы : 2 канала
Расположение каналов : Front: L R
Частота : 48,0 КГц
Битовая глубина : 16 бит
Метод сжатия : С потерями
Размер потока : 95,3 Мбайт (10%)
Выравнивание : Разделение по промежуткам
Продолжительность промежутка : 40 мс. (1,00 видеокадр)
Время предзагрузки промежутка : 500 мс.
Аудио #2
Идентификатор : 2
Формат : AC-3
Формат/Информация : Audio Coding 3
Расширение режима : CM (complete main)
Идентификатор кодека : 2000
Продолжительность : 1 ч. 9 м.
Вид битрейта : Постоянный
Битрейт : 192 Кбит/сек
Каналы : 2 канала
Расположение каналов : Front: L R
Частота : 48,0 КГц
Битовая глубина : 16 бит
Метод сжатия : С потерями
Размер потока : 95,3 Мбайт (10%)
Выравнивание : Разделение по промежуткам
Продолжительность промежутка : 40 мс. (1,00 видеокадр)
Время предзагрузки промежутка : 500 мс.

Скриншоты

If your ratio falls below 0.3, you will not be able to download Torrents! More about the rating.

[erzsebet.pl].t51868.torrent
Torrent: Registered   [ 2017-12-11 02:36 ]

Download .torrent

Download

20 KB

Status: checked
Completed: 16 times
Size: 970 MB
terms.php

#1

11-Dec-2017 01:25

[Profile]  [PM] 
Display posts:    

You cannot post new topics in this forum
You cannot reply to topics in this forum
You cannot edit your posts in this forum
You cannot delete your posts in this forum
You cannot vote in polls in this forum
You cannot attach files in this forum
You can download files in this forum
User agreement
For copyright holders
Advertise on this site

Скачайте на халяву через торрент на трекере erzsebet.pl

!ATTENTION!
The site does not give electronic versions of products, and is engaged only in a collecting and cataloguing of the references sent and published at a forum by our readers. If you are the legal owner of any submitted material and do not wish that the reference to it was in our catalogue, contact us and we shall immediately remove her. Files for an exchange on tracker are given by users of a site, and the administration does not bear the responsibility for their maintenance. The request to not fill in the files protected by copyrights, and also files of the illegal maintenance!