Подонки / Задиры / Bullies (Пол Линч / Paul Lynch) [1986, Канада, Боевик, триллер, драма, DVDRip] VO (Зереницын)

DL-List and Torrent activity
Size:  1.4 GB   |    Registered:  2 years 10 months   |    Completed:  16 times
Seeders:  3   Leechers:  1   Show peers in full details
 
   
 
 

Max Levien ®

Longevity:
2 years 10 months
Posts:
20374

[Quote] 

Подонки / Задиры / Bullies
Страна: Канада
Жанр: Боевик, триллер, драма
Год выпуска: 1986
Продолжительность: 1:36:47
Перевод: Одноголосый (закадровый) Сергей Зереницын
Субтитры: нет
Режиссер: Пол Линч / Paul Lynch
В ролях: Джонатан Кромби, Джанет-Лэйн Грин, Стивен Хантер, Дел Берти, Оливия д’Або, Билл Крофт, Берни Колсон, Эдриан Дорваль, Уильям Нанн, Зик Уилсон
Описание: Семья переезжает из большого города в маленький курортный городок, чтобы начать там новую жизнь. Однако скоро они понимают, что этот город контролируется зловещей мафией. Так начинается борьба, приводящая к кровавой развязке…
Сэмпл: https://www.sendspace.com/file/uw00mt
Качество видео: DVDRip
Формат видео: AVI
Видео: XviD MPEG-4 , 640x432 (1.33:1) , 23.976 fps ,1 869 Kbps
Аудио: AC3 , 48 kHz , 192.00 kbps avg , 2/0 (L,R) ch

MediaInfo

Complete name Подонки 1986.avi
Format : AVI
Format/Info : Audio Video Interleave
File size : 1.40 GiB
Duration : 1h 36mn
Overall bit rate : 2 070 Kbps
Writing application : VirtualDubMod 1.5.10.2 (build 2540/release)
Writing library : VirtualDubMod build 2540/release
Video
ID : 0
Format : MPEG-4 Visual
Format profile : Advanced [email protected]
Format settings, BVOP : 1
Format settings, QPel : No
Format settings, GMC : No warppoints
Format settings, Matrix : Default (H.263)
Codec ID : XVID
Codec ID/Hint : XviD
Duration : 1h 36mn
Bit rate : 1 869 Kbps
Width : 640 pixels
Height : 432 pixels
Display aspect ratio : 3:2
Frame rate : 23.976 fps
Color space : YUV
Chroma subsampling : 4:2:0
Bit depth : 8 bits
Scan type : Progressive
Compression mode : Lossy
Bits/(Pixel*Frame) : 0.282
Stream size : 1.26 GiB (90%)
Writing library : XviD 73
Audio
ID : 1
Format : AC-3
Format/Info : Audio Coding 3
Mode extension : CM (complete main)
Format settings, Endianness : Big
Codec ID : 2000
Duration : 1h 36mn
Bit rate mode : Constant
Bit rate : 192 Kbps
Channel(s) : 2 channels
Channel positions : Front: L R
Sampling rate : 48.0 KHz
Compression mode : Lossy
Stream size : 133 MiB (9%)
Alignment : Split accross interleaves
Interleave, duration : 42 ms (1.00 video frame)
Interleave, preload duratio : 500 ms

Скриншоты

If your ratio falls below 0.3, you will not be able to download Torrents! More about the rating.

[erzsebet.pl].t51870.torrent
Torrent: Registered   [ 2017-12-11 02:36 ]

Download .torrent

Download

15 KB

Status: checked
Completed: 16 times
Size: 1.4 GB
terms.php

#1

11-Dec-2017 01:25

[Profile]  [PM] 
Display posts:    

You cannot post new topics in this forum
You cannot reply to topics in this forum
You cannot edit your posts in this forum
You cannot delete your posts in this forum
You cannot vote in polls in this forum
You cannot attach files in this forum
You can download files in this forum
User agreement
For copyright holders
Advertise on this site

Скачайте на халяву через торрент на трекере erzsebet.pl

!ATTENTION!
The site does not give electronic versions of products, and is engaged only in a collecting and cataloguing of the references sent and published at a forum by our readers. If you are the legal owner of any submitted material and do not wish that the reference to it was in our catalogue, contact us and we shall immediately remove her. Files for an exchange on tracker are given by users of a site, and the administration does not bear the responsibility for their maintenance. The request to not fill in the files protected by copyrights, and also files of the illegal maintenance!