Циклон / Cyclone (Фред Олен Рэй / Fred Olen Ray) [1987, США, Фантастика, боевик, DVDRip] DVO

DL-List and Torrent activity
Size:  1.45 GB   |    Registered:  2 years 10 months   |    Completed:  16 times
Seeders:  3  
 
   
 
 

Max Levien ®

Longevity:
2 years 10 months
Posts:
20374

[Quote] 

Циклон / Cyclone
Страна: США
Жанр: Фантастика, боевик
Год выпуска: 1987
Продолжительность: 1:26:34
Перевод: Профессиональный (двухголосый закадровый)
Субтитры: нет
Режиссер: Фред Олен Рэй / Fred Olen Ray
В ролях: Хезер Томас, Джеффри Комбс, Эшли Ферраре, Дар Робинсон, Мартин Бесвик, Роберт Куорри, Мартин Ландау, Ханц Холл, Трой Донахью, Майкл Рейган
Описание: «Циклон» — прототип суперсовременного боевого мотоцикла, оснащённого ракетницами и лазерными пушками. Конечно же, такое чудо техники стоимостью в пять миллионов долларов не должно попасть в плохие руки, и проследить за этим придётся самому разработчику мотоцикла Рику и его подружке Тэри.
Доп. информация: Звук синхронизирован из раздачи Виталя_А
Сэмпл: https://www.sendspace.com/file/grgqgn
Качество видео: DVDRip
Формат видео: AVI
Видео: XviD MPEG-4 , 720x384 (1.88:1) , 23.976 fps , 2 200 Kbps
Аудио: AC3 , 48 kHz , 192.00 kbps avg , 2/0 (L,R) ch

MediaInfo

Complete name Циклон 1987.avi
Format : AVI
Format/Info : Audio Video Interleave
File size : 1.45 GiB
Duration : 1h 26mn
Overall bit rate : 2 401 Kbps
Writing application : VirtualDubMod 1.5.10.3 | www.virtualdub-fr.org || (build 2550/release)
Writing library : VirtualDub build 35491/release
Video
ID : 0
Format : MPEG-4 Visual
Format profile : Advanced [email protected]
Format settings, BVOP : 1
Format settings, QPel : No
Format settings, GMC : No warppoints
Format settings, Matrix : Default (MPEG)
Codec ID : XVID
Codec ID/Hint : XviD
Duration : 1h 26mn
Bit rate : 2 200 Kbps
Width : 720 pixels
Height : 384 pixels
Display aspect ratio : 1.85:1
Frame rate : 23.976 fps
Color space : YUV
Chroma subsampling : 4:2:0
Bit depth : 8 bits
Scan type : Progressive
Compression mode : Lossy
Bits/(Pixel*Frame) : 0.332
Stream size : 1.33 GiB (92%)
Writing library : XviD 1.2.1 (UTC 2008-12-04)
Audio
ID : 1
Format : AC-3
Format/Info : Audio Coding 3
Mode extension : CM (complete main)
Format settings, Endianness : Big
Codec ID : 2000
Duration : 1h 26mn
Bit rate mode : Constant
Bit rate : 192 Kbps
Channel(s) : 2 channels
Channel positions : Front: L R
Sampling rate : 48.0 KHz
Compression mode : Lossy
Stream size : 119 MiB (8%)
Alignment : Aligned on interleaves
Interleave, duration : 42 ms (1.00 video frame)
Interleave, preload duratio : 512 ms

Скриншоты

If your ratio falls below 0.3, you will not be able to download Torrents! More about the rating.

[erzsebet.pl].t51875.torrent
Torrent: Registered   [ 2017-12-11 02:36 ]

Download .torrent

Download

15 KB

Status: checked
Completed: 16 times
Size: 1.45 GB
terms.php

#1

11-Dec-2017 01:25

[Profile]  [PM] 
Display posts:    

You cannot post new topics in this forum
You cannot reply to topics in this forum
You cannot edit your posts in this forum
You cannot delete your posts in this forum
You cannot vote in polls in this forum
You cannot attach files in this forum
You can download files in this forum
User agreement
For copyright holders
Advertise on this site

Скачайте на халяву через торрент на трекере erzsebet.pl

!ATTENTION!
The site does not give electronic versions of products, and is engaged only in a collecting and cataloguing of the references sent and published at a forum by our readers. If you are the legal owner of any submitted material and do not wish that the reference to it was in our catalogue, contact us and we shall immediately remove her. Files for an exchange on tracker are given by users of a site, and the administration does not bear the responsibility for their maintenance. The request to not fill in the files protected by copyrights, and also files of the illegal maintenance!