Приключения Бакару Банзая в восьмом измерении / The Adventures of Buckaroo Banzai Across the 8th Dimension (У. Д. Рихтер / W.D. Richter) [1984, США, фантастика, приключения, HDTVRip] DVO (НТВ+)

DL-List and Torrent activity
Size:  7.26 GB   |    Registered:  2 years 10 months   |    Completed:  16 times
Seeders:  2  
 
   
 
 

Max Levien ®

Longevity:
2 years 10 months
Posts:
20374

[Quote] 

Приключения Бакару Банзая в восьмом измерении / The Adventures of Buckaroo Banzai Across the 8th Dimension
Страна: США
Жанр: фантастика, приключения
Год выпуска: 1984
Продолжительность: 01:38:19
Перевод: Профессиональный (НТВ+)
Субтитры: нет
Режиссер: У. Д. Рихтер / W.D. Richter
В ролях:
Питер Уэллер, Джон Литгоу, Эллен Баркин, Джефф Голдблюм, Кристофер Ллойд, Льюис Смит, Розалинд Кэш, Роберт Ито, Пепе Серна, Рональд Лейси, ...
Описание:
Главный герой фильма, Бакару Банзай, молодой учёный, нейрохирург, авантюрист и музыкант, который играет в своей рок-группе «The Hong Kong Cavaliers». Он преодолевает барьер восьмого измерения за рулём своей экспериментальной машины и борется за мир со злым красным Лектроидом с планеты 10...
Доп. информация:
ценарий - Эрл Мэк Роч
продюсеры - Нил Кэнтон, У. Д. Рихтер, Сидни Бекман
оператор - Фред Дж. Конекэмп
композитор - Michael Boddicker
художники - Дж. Майкл Рива, Рик Картер, Стивен Дэйн
Сэмпл: http://www.sendspace.com/file/2osisp
Качество видео: HDTVRip
Формат видео: MPEG-PS
Видео: MPEG2 Video, 720x576 (16:9) 25.00fps, ~10,2, 0.988 bit/pixel
Аудио: MPEG Audio, 48000Hz, 2/0 (L,R) ch, 192 Kbps

MediaInfo

Полное имя : G:\DVD\Приключения Бакару Банзая (1984)\Buckaroo Banzai.mpg
Формат : MPEG-PS
Размер файла : 7,26 Гбайт
Продолжительность : 1 ч. 38 м.
Общий поток : 10,6 Мбит/сек
Видео
Идентификатор : 224 (0xE0)
Формат : MPEG Video
Версия формата : Version 2
Профиль формата : [email protected]
Параметр BVOP формата : Да
Параметр матрицы формата : По умолчанию
Продолжительность : 1 ч. 38 м.
Вид битрейта : Переменный
Битрейт : 10,2 Мбит/сек
Ширина : 720 пикселей
Высота : 576 пикселей
Соотношение сторон : 16:9
Частота кадров : 25,000 кадров/сек
Стандарт вещания : PAL
Цветовое пространство : YUV
Субдискретизация насыщенности : 4:2:0
Битовая глубина : 8 бит
Тип развёртки : Прогрессивная
Метод сжатия : С потерями
Бит/(Пиксели*Кадры) : 0.988
Размер потока : 6,98 Гбайт (96%)
Аудио
Идентификатор : 192 (0xC0)
Формат : MPEG Audio
Версия формата : Version 1
Профиль формата : Layer 2
Продолжительность : 1 ч. 38 м.
Вид битрейта : Постоянный
Битрейт : 192 Кбит/сек
Каналы : 2 канала
Частота : 48,0 КГц
Метод сжатия : С потерями
Размер потока : 135 Мбайт (2%)

Скриншот c названием фильма

Скриншоты



If your ratio falls below 0.3, you will not be able to download Torrents! More about the rating.

[erzsebet.pl].t51880.torrent
Torrent: Registered   [ 2017-12-11 02:36 ]

Download .torrent

Download

37 KB

Status: checked
Completed: 16 times
Size: 7.26 GB
terms.php

#1

11-Dec-2017 01:24

[Profile]  [PM] 
Display posts:    

You cannot post new topics in this forum
You cannot reply to topics in this forum
You cannot edit your posts in this forum
You cannot delete your posts in this forum
You cannot vote in polls in this forum
You cannot attach files in this forum
You can download files in this forum
User agreement
For copyright holders
Advertise on this site

Скачайте на халяву через торрент на трекере erzsebet.pl

!ATTENTION!
The site does not give electronic versions of products, and is engaged only in a collecting and cataloguing of the references sent and published at a forum by our readers. If you are the legal owner of any submitted material and do not wish that the reference to it was in our catalogue, contact us and we shall immediately remove her. Files for an exchange on tracker are given by users of a site, and the administration does not bear the responsibility for their maintenance. The request to not fill in the files protected by copyrights, and also files of the illegal maintenance!