Болотная собака / Der Moorhund (Конрад Петцольд / Konrad Petzold) [1960, Германия, ГДР, приключения, шпионский фильм, DVDRip] VO (Юрий Муравский) + Original Ger

DL-List and Torrent activity
Size:  1.46 GB   |    Registered:  2 years 10 months   |    Completed:  16 times
Seeders:  2  
 
   
 
 

Max Levien ®

Longevity:
2 years 10 months
Posts:
20374

[Quote] 

Болотная собака / Der Moorhund
Страна: ГДР
Жанр: приключения, шпионский фильм
Год выпуска: 1960
Продолжительность: 01:15:05
Перевод: Одноголосый закадровый (Юрий Муравский)
Субтитры: нет
Оригинальная аудиодорожка: немецкий
Режиссер: Конрад Петцольд / Konrad Petzold
В ролях: Гюнтер Зимон / Günther Simon, Рольф Риппергер / Ripperger, Дитер Перльвиц / Dieter Perlwitz, Петер Штурм / Peter Sturm, Эльфриде Флорин / Elfriede Florin, Хорст Кубе / Horst Kube, Клаус Урбан / Klaus Urban, Вольфганг Глазер / Wolfgang Glaser, Вольфганг Йохман / Wolfgang Jochmann
Описание: Два пионера, Клаус и Фрицхен, помогают пограничникам поймать таинственную болотную собаку, которую враги использовали в качестве связного для своей шпионской деятельности.
Доп. информация: http://www.imdb.com/title/tt0054092/
Сэмпл: http://multi-up.com/1084926
Качество видео: DVDRip
Формат видео: AVI
Видео: XviD, 720x544 (4:3), 25.000 fps, 2389 kbps, 0.244 b/p
Аудио: AC3, 48000 Hz, 2 ch, 192 kbps (русский)
Аудио 2: AC3, 48000 Hz, 2 ch, 192 kbps (немецкий)

MediaInfo

General
Complete name : F:\РУТРЕКЕР\Болотная собака\Der Moorhund.avi
Format : AVI
Format/Info : Audio Video Interleave
File size : 1.46 GiB
Duration : 1h 15mn
Overall bit rate : 2 780 Kbps
Writing application : VirtualDubMod 1.5.4.1 (build 2178/release)
Writing library : VirtualDubMod build 2178/release
Video
ID : 0
Format : MPEG-4 Visual
Format profile : Advanced [email protected]
Format settings, BVOP : 1
Format settings, QPel : No
Format settings, GMC : No warppoints
Format settings, Matrix : Custom
Codec ID : XVID
Codec ID/Hint : XviD
Duration : 1h 15mn
Bit rate : 2 389 Kbps
Width : 720 pixels
Height : 544 pixels
Display aspect ratio : 4:3
Frame rate : 25.000 fps
Color space : YUV
Chroma subsampling : 4:2:0
Bit depth : 8 bits
Scan type : Progressive
Compression mode : Lossy
Bits/(Pixel*Frame) : 0.244
Stream size : 1.25 GiB (86%)
Writing library : XviD 1.2.1 (UTC 2008-12-04)
Audio #1
ID : 1
Format : AC-3
Format/Info : Audio Coding 3
Mode extension : CM (complete main)
Format settings, Endianness : Big
Codec ID : 2000
Duration : 1h 14mn
Bit rate mode : Constant
Bit rate : 192 Kbps
Channel(s) : 2 channels
Channel positions : Front: L R
Sampling rate : 48.0 KHz
Bit depth : 16 bits
Compression mode : Lossy
Stream size : 102 MiB (7%)
Alignment : Split accross interleaves
Interleave, duration : 97 ms (2.42 video frames)
Interleave, preload duration : 96 ms
Language : Russian
Audio #2
ID : 2
Format : AC-3
Format/Info : Audio Coding 3
Mode extension : CM (complete main)
Format settings, Endianness : Big
Codec ID : 2000
Duration : 1h 14mn
Bit rate mode : Constant
Bit rate : 192 Kbps
Channel(s) : 2 channels
Channel positions : Front: L R
Sampling rate : 48.0 KHz
Bit depth : 16 bits
Compression mode : Lossy
Stream size : 102 MiB (7%)
Alignment : Split accross interleaves
Interleave, duration : 97 ms (2.42 video frames)
Interleave, preload duration : 96 ms
Language : Deutsch

Скриншот c названием фильма

Скриншоты


If your ratio falls below 0.3, you will not be able to download Torrents! More about the rating.

[erzsebet.pl].t51882.torrent
Torrent: Registered   [ 2017-12-11 02:36 ]

Download .torrent

Download

15 KB

Status: checked
Completed: 16 times
Size: 1.46 GB
terms.php

#1

11-Dec-2017 01:24

[Profile]  [PM] 
Display posts:    

You cannot post new topics in this forum
You cannot reply to topics in this forum
You cannot edit your posts in this forum
You cannot delete your posts in this forum
You cannot vote in polls in this forum
You cannot attach files in this forum
You can download files in this forum
User agreement
For copyright holders
Advertise on this site

Скачайте на халяву через торрент на трекере erzsebet.pl

!ATTENTION!
The site does not give electronic versions of products, and is engaged only in a collecting and cataloguing of the references sent and published at a forum by our readers. If you are the legal owner of any submitted material and do not wish that the reference to it was in our catalogue, contact us and we shall immediately remove her. Files for an exchange on tracker are given by users of a site, and the administration does not bear the responsibility for their maintenance. The request to not fill in the files protected by copyrights, and also files of the illegal maintenance!