Живой монстр / Монстр / El monstruo resucitado / Il mostruoso dottor Crimen / The Revived Monster (Чано Уруэта / Chano Urueta) [1953, Мексика, триллер, ужасы, фантастика, DVDRip] VO (SATKUR)

DL-List and Torrent activity
Size:  851 MB   |    Registered:  2 years 10 months   |    Completed:  16 times
Seeders:  3  
 
   
 
 

Max Levien ®

Longevity:
2 years 10 months
Posts:
20374

[Quote] 

Живой монстр / Монстр / El monstruo resucitado / Il mostruoso dottor Crimen / The Revived Monster
Страна: Мексика
Жанр: триллер, ужасы, фантастика
Год выпуска: 1953
Продолжительность: 01:17:04
Перевод: Одноголосый закадровый SATKUR
Субтитры: нет
Режиссер: Чано Уруэта / Chano Urueta
В ролях: Мирослава Штернова, Карлос Наварро,Хосе Мария Линарес-Ривас, Фернандо Вагнер, Альберто Марискаль, Стефан Берн
Описание: Молодой амбициозной журналистке, - Норе, надоедает её рутинная работа, ей хочется сенсации. И тут её редактор предлагает обратить ей внимание на колонку объявлений знакомств. Сперва она отнекивается, но всё же потом решается написать письмо одному незнакомцу. И вот, однажды вечером, она встречается со странным незнакомцем, чьё лицо скрыто под чёрной маской. Он отвозит её к себе в свой мрачный дом, где все комнаты заставлены манекенами и занавешены все зеркала, и рассказывает душещипательную историю о своей жизни. Оказывается, что незнакомец есть не кто иной, как некогда всемирно знаменитый пластический хирург - доктор Герман Линг. Чувствуя сострадания к своей персоне со стороны Норы, Герман Линг проникается к ней любовью, только вот Нора не собирается отвечать взаимностью. И тогда, боясь, что Нора может его предать, он решается воскресить мертвого молодого парня, который должен будет вернуть Нору в дом доктора, где журналистку ждёт смерть...
Доп. информация: Озвучено по субтитрам +MarfenaRus+

Сэмпл: http://multi-up.com/949095
Качество видео: DVDRip
Формат видео: AVI
Видео: 640x480 (4:3), 25 fps, XviD build ~1145 kbps avg, 0.149 bit/pixel
Аудио 1: AC3, 48.0 KHz, 2 ch, 192 Kbps, CBR - русский одноголосый
Аудио 2: AC3, 48.0 KHz, 2 ch, 192 Kbps, CBR - оригинальный испанский

MediaInfo

Общее
Полное имя : D:\FILM\F-2014\Disk-23\El.Monstruo.Resucitado.1953.Spa.[vo.satkur+spa].AC3.Rus\El.Monstruo.Resucitado.1953.Spa.[vo.satkur+spa].AC3.Rus.avi
Формат : AVI
Формат/Информация : Audio Video Interleave
Размер файла : 851 Мбайт
Продолжительность : 1 ч. 17 м.
Общий поток : 1543 Кбит/сек
Программа кодирования : VirtualDubModRus 1.5.10.2 (build 2542/release)
Библиотека кодирования : VirtualDubMod build 2542/release
Видео
Идентификатор : 0
Формат : MPEG-4 Visual
Профиль формата : [email protected]
Параметр BVOP формата : Нет
Параметр QPel формата : Нет
Параметр GMC формата : Без точки перехода
Параметр матрицы формата : Default (H.263)
Идентификатор кодека : XVID
Идентификатор кодека/Подсказка : XviD
Продолжительность : 1 ч. 17 м.
Битрейт : 1145 Кбит/сек
Ширина : 640 пикселей
Высота : 480 пикселей
Соотношение сторон : 4:3
Частота кадров : 25,000 кадров/сек
Цветовое пространство : YUV
Субдискретизация насыщенности : 4:2:0
Битовая глубина : 8 бит
Тип развёртки : Прогрессивная
Метод сжатия : С потерями
Бит/(Пиксели*Кадры) : 0.149
Размер потока : 631 Мбайт (74%)
Библиотека кодирования : Lavc52.84.0
Аудио #1
Идентификатор : 1
Формат : AC-3
Формат/Информация : Audio Coding 3
Расширение режима : CM (complete main)
Параметр Endianness формата : Big
Идентификатор кодека : 2000
Продолжительность : 1 ч. 17 м.
Вид битрейта : Постоянный
Битрейт : 192 Кбит/сек
Каналы : 2 канала
Расположение каналов : Front: L R
Частота : 48,0 КГц
Битовая глубина : 16 бит
Метод сжатия : С потерями
Размер потока : 106 Мбайт (12%)
Выравнивание : Разделение по промежуткам
Продолжительность промежутка : 40 мс. (1,00 видеокадр)
Время предзагрузки промежутка : 500 мс.
Аудио #2
Идентификатор : 2
Формат : AC-3
Формат/Информация : Audio Coding 3
Расширение режима : CM (complete main)
Параметр Endianness формата : Big
Идентификатор кодека : 2000
Продолжительность : 1 ч. 17 м.
Вид битрейта : Постоянный
Битрейт : 192 Кбит/сек
Каналы : 2 канала
Расположение каналов : Front: L R
Частота : 48,0 КГц
Битовая глубина : 16 бит
Метод сжатия : С потерями
Размер потока : 106 Мбайт (12%)
Выравнивание : Разделение по промежуткам
Продолжительность промежутка : 40 мс. (1,00 видеокадр)
Время предзагрузки промежутка : 500 мс.

Скриншот c названием фильма

If your ratio falls below 0.3, you will not be able to download Torrents! More about the rating.

[erzsebet.pl].t51884.torrent
Torrent: Registered   [ 2017-12-11 02:36 ]

Download .torrent

Download

17 KB

Status: checked
Completed: 16 times
Size: 851 MB
terms.php

#1

11-Dec-2017 01:24

[Profile]  [PM] 
Display posts:    

You cannot post new topics in this forum
You cannot reply to topics in this forum
You cannot edit your posts in this forum
You cannot delete your posts in this forum
You cannot vote in polls in this forum
You cannot attach files in this forum
You can download files in this forum
User agreement
For copyright holders
Advertise on this site

Скачайте на халяву через торрент на трекере erzsebet.pl

!ATTENTION!
The site does not give electronic versions of products, and is engaged only in a collecting and cataloguing of the references sent and published at a forum by our readers. If you are the legal owner of any submitted material and do not wish that the reference to it was in our catalogue, contact us and we shall immediately remove her. Files for an exchange on tracker are given by users of a site, and the administration does not bear the responsibility for their maintenance. The request to not fill in the files protected by copyrights, and also files of the illegal maintenance!