Токсичный / Взгляните, кто токсичен / Look Who's Toxic (Луис Мэтью / Louis Mathew) [1990, США, ужасы, VHSRip] MVO (Кипарис по заказу Совенчер)

DL-List and Torrent activity
Size:  1.34 GB   |    Registered:  2 years 10 months   |    Completed:  16 times
Seeders:  2  
 
   
 
 

Max Levien ®

Longevity:
2 years 10 months
Posts:
20374

[Quote] 

Токсичный / Взгляните, кто токсичен / Look Who's Toxic
Страна: США
Жанр: ужасы
Год выпуска: 1990
Продолжительность: 01:34:08
Перевод: Профессиональный (многоголосый закадровый) Кипарис по заказу Совенчер
Субтитры: нет
Режиссер: Луис Мэтью / Louis Mathew
В ролях: Крис Робинсон, Luis Lemus, Shelly Stolaroff, Торин Койл Кэффри, Алекс Моррис, Аллен Доррис, Алекс Жорж, Билл Шоу,Эйприл Сейр,Боб Бадрикс
Описание: Практически полновластный хозяин города, владелец химического завода, приносящего ему очень большие доходы, мистер Джонс серьёзно болен. У него больное сердце, а тут ещё местные жители проводят митинги с требованием прекратить загрязнение окружающей среды. Следствием таких настроений людей стал случай с рождением ребёнка-мутанта. Джонс даёт задание своим подручным раздобыть живое тело для трансплантации сердца. Такого находят в гимнастическом зале, где собираются качки.
Молодого человека усыпляют и привозят в клинику, которой также владеет Джонс. У молодого качка вырезают сердце и пересаживают богатею, а тело сбрасывают в находящуюся рядом реку. А в эту речку химический завод сбрасывал свои многочисленные отходы.
Доп. информация: Оцифровка из архивов VHS от novikov79
Релиз
Сэмпл: https://yadi.sk/i/G5rVU9SKtKwtD
Качество видео: VHSRip
Формат видео: AVI
Видео: 640x480 (1.33:1), 25 fps, XviD MPEG-4 ~1894 kbps avg, 0.25 bit/pixel
Аудио: 48 kHz, AC3 Dolby Digital, 2/0 (L,R) ch, ~128 kbps

MediaInfo

Токсичный - Look Who's Toxic [by novikov79].avi
Format : AVI
Format/Info : Audio Video Interleave
File size : 1.34 GiB
Duration : 1h 34mn
Overall bit rate : 2 032 Kbps
Movie name : Токсичный - Look Who's Toxic [by novikov79]
Director : by novikov79
Writing application : VirtualDubMod 1.5.10.2 (build 2540/release)
Copyright : Edich2
Comment : erzsebet.org
Video
ID : 0
Format : MPEG-4 Visual
Format profile : Advanced [email protected]
Format settings, BVOP : 2
Format settings, QPel : No
Format settings, GMC : No warppoints
Format settings, Matrix : Default (H.263)
Muxing mode : Packed bitstream
Codec ID : XVID
Codec ID/Hint : XviD
Duration : 1h 34mn
Bit rate : 1 895 Kbps
Width : 640 pixels
Height : 480 pixels
Display aspect ratio : 4:3
Frame rate : 25.000 fps
Color space : YUV
Chroma subsampling : 4:2:0
Bit depth : 8 bits
Scan type : Progressive
Compression mode : Lossy
Bits/(Pixel*Frame) : 0.247
Stream size : 1.25 GiB (93%)
Writing library : XviD 1.2.1 (UTC 2008-12-04)
Audio
ID : 1
Format : AC-3
Format/Info : Audio Coding 3
Mode extension : CM (complete main)
Format settings, Endianness : Big
Codec ID : 2000
Duration : 1h 34mn
Bit rate mode : Constant
Bit rate : 128 Kbps
Channel(s) : 2 channels
Channel positions : Front: L R
Sampling rate : 48.0 KHz
Frame rate : 31.250 fps (1536 spf)
Compression mode : Lossy
Stream size : 86.2 MiB (6%)
Alignment : Aligned on interleaves
Interleave, duration : 40 ms (1.00 video frame)
Interleave, preload duratio : 512 ms

Скриншоты


If your ratio falls below 0.3, you will not be able to download Torrents! More about the rating.

[erzsebet.pl].t51885.torrent
Torrent: Registered   [ 2017-12-11 02:36 ]

Download .torrent

Download

14 KB

Status: checked
Completed: 16 times
Size: 1.34 GB
terms.php

#1

11-Dec-2017 01:24

[Profile]  [PM] 
Display posts:    

You cannot post new topics in this forum
You cannot reply to topics in this forum
You cannot edit your posts in this forum
You cannot delete your posts in this forum
You cannot vote in polls in this forum
You cannot attach files in this forum
You can download files in this forum
User agreement
For copyright holders
Advertise on this site

Скачайте на халяву через торрент на трекере erzsebet.pl

!ATTENTION!
The site does not give electronic versions of products, and is engaged only in a collecting and cataloguing of the references sent and published at a forum by our readers. If you are the legal owner of any submitted material and do not wish that the reference to it was in our catalogue, contact us and we shall immediately remove her. Files for an exchange on tracker are given by users of a site, and the administration does not bear the responsibility for their maintenance. The request to not fill in the files protected by copyrights, and also files of the illegal maintenance!