Легенда о Джедидае Карвере / The Legend of Jedediah Carver (Девитт Ли / Dewitt Lee) [1976, США, Вестерн, драма, VHSRip] DVO

DL-List and Torrent activity
Size:  741 MB   |    Registered:  2 years 10 months   |    Completed:  16 times
Seeders:  2  
 
   
 
 

Max Levien ®

Longevity:
2 years 10 months
Posts:
20374

[Quote] 

Легенда о Джедидае Карвере / The Legend of Jedediah Carver
Страна: США
Жанр: Вестерн, драма
Год выпуска: 1976
Продолжительность: 01:30:17
Перевод: Профессиональный (двухголосый закадровый)
Субтитры: нет
Режиссер: Девитт Ли / Dewitt Lee
В ролях: Девитт Ли, Джошуа Хоффман, Ричард Монтгомери, Вэл Чэпман, Уоллес Броберг, Кларк Грейвз.
Описание: Охотника и проводника геодезической экспедиции на Юго-Западе США сбрасывает на скалы лошадь, он получает несовместимые с жизнью травмы, товарищи по экспедиции вынуждены его бросить из-за враждебных апачей. Однако, вопреки всему охотник умирать не собирается и бросает вызов не только стихии, но и злобному вождю апачей, который поклялся убивать всякого белого на своей земле…
Сэмпл: http://multi-up.com/1125047
Качество видео: VHSRip (Исходник - DVD Video)
Формат видео: AVI
Видео: XviD 73, 608x464, (4:3), 23,976 fps, 939 Кбит/с
Аудио: Русский (АС3, 2 ch (Front: L R), 48,0 KHz, 192 Kbps)

MediaInfo

Общее
Полное имя : F:\Видеофильмы\В и д е о\Легенда о Джидае Карвере (вестерн 1976 год).avi
Формат : AVI
Формат/Информация : Audio Video Interleave
Размер файла : 741 Мбайт
Продолжительность : 1 ч. 30 м.
Общий поток : 1141 Кбит/сек
Программа кодирования : VirtualDubMod 1.5.10.3 | www.virtualdub-fr.org || (build 2550/release)
Библиотека кодирования : VirtualDubMod build 2550/release
Видео
Идентификатор : 0
Формат : MPEG-4 Visual
Профиль формата : Advanced [email protected]
Параметр BVOP формата : 2
Параметр QPel формата : Нет
Параметр GMC формата : Без точки перехода
Параметр матрицы формата : Выборочная
Идентификатор кодека : XVID
Идентификатор кодека/Подсказка : XviD
Продолжительность : 1 ч. 30 м.
Битрейт : 939 Кбит/сек
Ширина : 608 пикселей
Высота : 464 пикселя
Соотношение сторон : 4:3
Частота кадров : 23,976 (24000/1001) кадра/сек
Цветовое пространство : YUV
Субдискретизация насыщенности : 4:2:0
Битовая глубина : 8 бит
Тип развёртки : Прогрессивная
Метод сжатия : С потерями
Бит/(Пиксели*Кадры) : 0.139
Размер потока : 610 Мбайт (82%)
Библиотека кодирования : XviD 73
Аудио
Идентификатор : 1
Формат : AC-3
Формат/Информация : Audio Coding 3
Расширение режима : CM (complete main)
Параметр Endianness формата : Big
Идентификатор кодека : 2000
Продолжительность : 1 ч. 30 м.
Вид битрейта : Постоянный
Битрейт : 192 Кбит/сек
Каналы : 2 канала
Расположение каналов : Front: L R
Частота : 48,0 КГц
Частота кадров : 31,250 кадров/сек (1536 spf)
Метод сжатия : С потерями
Размер потока : 125 Мбайт (17%)
Выравнивание : Разделение по промежуткам
Продолжительность промежутка : 42 мс. (1,00 видеокадр)
Время предзагрузки промежутка : 500 мс.

Скриншот c названием фильма

Скриншоты

If your ratio falls below 0.3, you will not be able to download Torrents! More about the rating.

[erzsebet.pl].t51891.torrent
Torrent: Registered   [ 2017-12-11 02:36 ]

Download .torrent

Download

15 KB

Status: checked
Completed: 16 times
Size: 741 MB
terms.php

#1

11-Dec-2017 01:24

[Profile]  [PM] 
Display posts:    

You cannot post new topics in this forum
You cannot reply to topics in this forum
You cannot edit your posts in this forum
You cannot delete your posts in this forum
You cannot vote in polls in this forum
You cannot attach files in this forum
You can download files in this forum
User agreement
For copyright holders
Advertise on this site

Скачайте на халяву через торрент на трекере erzsebet.pl

!ATTENTION!
The site does not give electronic versions of products, and is engaged only in a collecting and cataloguing of the references sent and published at a forum by our readers. If you are the legal owner of any submitted material and do not wish that the reference to it was in our catalogue, contact us and we shall immediately remove her. Files for an exchange on tracker are given by users of a site, and the administration does not bear the responsibility for their maintenance. The request to not fill in the files protected by copyrights, and also files of the illegal maintenance!