Оспоримая истина / Настоящий и ложный / Il vero e il falso (Эрипрандо Висконти / Eriprando Visconti) [1972, Италия, Драма, криминал, DVDRip] DVO (Студия "Дубляж 1")

DL-List and Torrent activity
Size:  1.37 GB   |    Registered:  2 years 10 months   |    Completed:  16 times
Seeders:  3  
 
   
 
 

Max Levien ®

Longevity:
2 years 10 months
Posts:
20374

[Quote] 

Оспоримая истина / Настоящий и ложный / Il vero e il falso
Страна: Италия
Жанр: Драма, криминал
Год выпуска: 1972
Продолжительность: 01:34:26
Перевод: Профессиональный (двухголосый закадровый) Студия "Дубляж 1"
Субтитры: нет
Режиссер: Эрипрандо Висконти / Eriprando Visconti
В ролях: Теренс Хилл, Мартин Болсам, Паола Питагора, Адальберто Мария Мерли, Ширли Корригэн, Мария Тереза Албани, Рита Калдерони, Калисто Калисти, Этторе Джери, Пьеро Герлини
Описание: Луиза, скромная учительница, была осуждена за убийство любовницы мужа, Клаудио. После освобождения из тюрьмы за хорошее поведение, она обнаруживает, что женщина жива и живет с Клаудио. Луиза решает на самом деле убить ту, чья поддельная смерть отправила её в тюрьму. Возникает почти философский вопрос, можно ли быть дважды осужденным за одно преступление.
Доп. информация: Исходник DVD-5 (СПАСИБО! Al12)
Перевод и озвучивание Студия "Дубляж 1"
Перевод Виталия Арсеньева
Озвучивание Виталий Арсеньев и Татьяна Бовкалова
Сэмпл: http://multi-up.com/1055302/
Качество видео: DVDRip
Формат видео: AVI
Видео: XviD build 50, 704x304 (2.32:1), 25 fps, 1869 kbps avg
Аудио: AC3 Dolby Digital, 48 kHz, 2/0 (L,R) ch, 192 kbps

MediaInfo

General
Complete name : D:\Osporimaja.istina.1972.XviD.DVDRip-Dego.avi
Format : AVI
Format/Info : Audio Video Interleave
File size : 1.37 GiB
Duration : 1h 34mn
Overall bit rate : 2 071 Kbps
Writing application : VirtualDubMod 1.5.10.2 (build 2540/release)
Writing library : VirtualDubMod build 2540/release
Video
ID : 0
Format : MPEG-4 Visual
Format profile : [email protected]
Format settings, BVOP : Yes
Format settings, QPel : No
Format settings, GMC : No warppoints
Format settings, Matrix : Custom
Codec ID : XVID
Codec ID/Hint : XviD
Duration : 1h 34mn
Bit rate : 1 870 Kbps
Width : 704 pixels
Height : 304 pixels
Display aspect ratio : 2.35
Frame rate : 25.000 fps
Resolution : 24 bits
Colorimetry : 4:2:0
Scan type : Progressive
Bits/(Pixel*Frame) : 0.349
Stream size : 1.23 GiB (90%)
Writing library : XviD 1.2.1 (UTC 2008-12-04)
Audio
ID : 1
Format : AC-3
Format/Info : Audio Coding 3
Codec ID : 2000
Duration : 1h 34mn
Bit rate mode : Constant
Bit rate : 192 Kbps
Channel(s) : 2 channels
Channel positions : L R
Sampling rate : 48.0 KHz
Stream size : 130 MiB (9%)
Alignment : Split accross interleaves
Interleave, duration : 40 ms (1.00 video frame)
Interleave, preload duration : 500 ms

Скриншоты

If your ratio falls below 0.3, you will not be able to download Torrents! More about the rating.

[erzsebet.pl].t51892.torrent
Torrent: Registered   [ 2017-12-11 02:36 ]

Download .torrent

Download

14 KB

Status: checked
Completed: 16 times
Size: 1.37 GB
terms.php

#1

11-Dec-2017 01:24

[Profile]  [PM] 
Display posts:    

You cannot post new topics in this forum
You cannot reply to topics in this forum
You cannot edit your posts in this forum
You cannot delete your posts in this forum
You cannot vote in polls in this forum
You cannot attach files in this forum
You can download files in this forum
User agreement
For copyright holders
Advertise on this site

Скачайте на халяву через торрент на трекере erzsebet.pl

!ATTENTION!
The site does not give electronic versions of products, and is engaged only in a collecting and cataloguing of the references sent and published at a forum by our readers. If you are the legal owner of any submitted material and do not wish that the reference to it was in our catalogue, contact us and we shall immediately remove her. Files for an exchange on tracker are given by users of a site, and the administration does not bear the responsibility for their maintenance. The request to not fill in the files protected by copyrights, and also files of the illegal maintenance!