Мальчишки есть мальчишки / Pani Kluci (Вера Пливова-Шимкова / Vera Plivova-Simkova) [1975, Чехословакия, Приключения, Комедии, Семейные, DVDRip] VO (Вячеслав Прошин) + original cze

DL-List and Torrent activity
Size:  1.47 GB   |    Registered:  2 years 10 months   |    Completed:  16 times
Seeders:  2  
 
   
 
 

Max Levien ®

Longevity:
2 years 10 months
Posts:
20374

[Quote] 

Мальчишки есть мальчишки / Pani Kluci
Страна: Чехословакия
Жанр: Приключения, Комедии, Семейные
Год выпуска: 1975
Продолжительность: 01:26:45
Перевод: Любительский (одноголосый закадровый) Вячеслав Прошин
Субтитры: нет
Оригинальная аудиодорожка: чешский
Режиссер: Вера Пливова-Шимкова / Vera Plivova-Simkova
В ролях: Михал Дымек, Петр Воришек, Петр Стары, Магдалена Рейфова, Йитка Халупникова, Давид Влчек, Богумил Люксик, Ива Янгурова, Здена Гадрбольцова и др.
Описание: Замечательная веселая комедия - абсолютно вольное переложение марктвеновского "Тома Сойера" на чешский лад. Соответственно, тут Тома зовут Томашеком, его друзей - Губерт ("аналог" Гека) и Йожка. А дело происходит в Чехии в 1900 году.-Релиз: Кинопортал Близзард
Перевод: Алексей Простотак при участии Романа Зайцева
Озвучание: Вячеслав Прошин-Сэмпл: http://multi-up.com/388828
Качество видео: DVDRip
Формат видео: AVI
Видео: Xvid 720x544 25.00fps 1958 Kbps
Аудио 1: Dolby AC3 48000Hz stereo 224kbps (русский)
Аудио 2: Dolby AC3 48000Hz stereo 224kbps (чешский)

MediaInfo

General
Complete name : I:\Мальчишки есть мальчишки\Pani.Kluci.rus.che.avi
Format : AVI
Format/Info : Audio Video Interleave
File size : 1.47 GiB
Duration : 1h 26mn
Overall bit rate : 2 420 Kbps
Writing application : VirtualDubModRus 1.5.10.2 (build 2540/release)
Writing library : VirtualDubMod build 2540/release
Video
ID : 0
Format : MPEG-4 Visual
Format profile : [email protected]
Format settings, BVOP : No
Format settings, QPel : No
Format settings, GMC : No warppoints
Format settings, Matrix : Default (H.263)
Codec ID : XVID
Codec ID/Hint : XviD
Duration : 1h 26mn
Bit rate : 1 958 Kbps
Width : 720 pixels
Height : 544 pixels
Display aspect ratio : 4:3
Frame rate : 25.000 fps
Color space : YUV
Chroma subsampling : 4:2:0
Bit depth : 8 bits
Scan type : Progressive
Bits/(Pixel*Frame) : 0.200
Stream size : 1.19 GiB (81%)
Writing library : XviD 1.1.2 (UTC 2006-11-01)
Audio #1
ID : 1
Format : AC-3
Format/Info : Audio Coding 3
Mode extension : CM (complete main)
Codec ID : 2000
Duration : 1h 26mn
Bit rate mode : Constant
Bit rate : 224 Kbps
Channel(s) : 2 channels
Channel positions : Front: L R
Sampling rate : 48.0 KHz
Stream size : 139 MiB (9%)
Alignment : Split accross interleaves
Interleave, duration : 40 ms (1.00 video frame)
Interleave, preload duration : 500 ms
Audio #2
ID : 2
Format : AC-3
Format/Info : Audio Coding 3
Mode extension : CM (complete main)
Codec ID : 2000
Duration : 1h 26mn
Bit rate mode : Constant
Bit rate : 224 Kbps
Channel(s) : 2 channels
Channel positions : Front: L R
Sampling rate : 48.0 KHz
Stream size : 139 MiB (9%)
Alignment : Split accross interleaves
Interleave, duration : 40 ms (1.00 video frame)
Interleave, preload duration : 500 ms

Скриншот c названием фильма

Скриншоты

If your ratio falls below 0.3, you will not be able to download Torrents! More about the rating.

[erzsebet.pl].t51893.torrent
Torrent: Registered   [ 2017-12-11 02:36 ]

Download .torrent

Download

15 KB

Status: checked
Completed: 16 times
Size: 1.47 GB
terms.php

#1

11-Dec-2017 01:24

[Profile]  [PM] 
Display posts:    

You cannot post new topics in this forum
You cannot reply to topics in this forum
You cannot edit your posts in this forum
You cannot delete your posts in this forum
You cannot vote in polls in this forum
You cannot attach files in this forum
You can download files in this forum
User agreement
For copyright holders
Advertise on this site

Скачайте на халяву через торрент на трекере erzsebet.pl

!ATTENTION!
The site does not give electronic versions of products, and is engaged only in a collecting and cataloguing of the references sent and published at a forum by our readers. If you are the legal owner of any submitted material and do not wish that the reference to it was in our catalogue, contact us and we shall immediately remove her. Files for an exchange on tracker are given by users of a site, and the administration does not bear the responsibility for their maintenance. The request to not fill in the files protected by copyrights, and also files of the illegal maintenance!