Год медуз / L'année des méduses (Кристофер Франк / Christopher Frank) [1984, Франция, драма, мелодрама, DVDRip-AVC] MVO + Original Fre

DL-List and Torrent activity
Size:  2.1 GB   |    Registered:  2 years 10 months   |    Completed:  16 times
Seeders:  3  
 
   
 
 

Max Levien ®

Longevity:
2 years 10 months
Posts:
20374

[Quote] 

Год медуз / L'année des méduses
Страна: Франция
Жанр: драма, мелодрама
Год выпуска: 1984
Продолжительность: 01:45:20
Перевод: Профессиональный (многоголосый закадровый)
Субтитры: нет
Оригинальная аудиодорожка: французский
Режиссер: Кристофер Франк / Christopher Frank
В ролях: Валери Каприски, Бернар Жиродо, Каролин Селлье, Жак Перрен, Беатрис Аженен, Барбара Нильсен, Давид Джалиль, Филипп Лемэр Пьер Ванек, Жан-Поль Дюбарри
Описание: В античные времена символом победы матриархата над патриархатом являлась медуза, а ее символами бессмертие и святость...
Картина поведает нам об интимном мире шестнадцатилетней Крис, первых ошибках и разочарованиях, жажде любви и нетерпеливом желании попробовать все, что готова предложить жизнь...
Чувственная самоидентификация юной Крис разворачивается на фоне прекрасных пляжей Сан - Тропе, где загорают или прогуливаются обнаженные девушки, а в жарком воздухе веет свободой и курортными романами. Героиня, выросшая в мире запретов и противоречий, одержима сексуальными комплексами, но, при этом, агрессивно претендует на роль коварной обольстительницы и вершительницы мужских судеб. Ведь ей, точно мифологической Медузе Горгоне подвластно превратить любое сердце в камень...
Сезар, 1985 год
Победитель: Лучшая актриса второго плана (Каролин Селлье)

Сэмпл: http://multi-up.com/848964
Качество видео: DVDRip-AVC
Формат видео: MKV
Видео: AVC, 720x552 @ 1024x552 (1.855), 2209 kbps, 25 fps, 0.222 bpp
Аудио: AC3, 5.1, 48 kHz, 448 kbps - рус.
Аудио 2: AC3, 5.1, 48 kHz, 192 kbps - fr.

MediaInfo

Общее
Уникальный идентификатор : 188319224286313843424430300106328024634 (0x8DACF69BDB381749B6D7D08F17FEA63A)
Полное имя : E:\God.Meduz.DVDRip-AVC.mkv
Формат : Matroska
Версия формата : Version 2
Размер файла : 2,10 Гбайт
Продолжительность : 1 ч. 45 м.
Общий поток : 2851 Кбит/сек
Название фильма : = Год медуз / L'année des méduses DVDRip by SC Kosmos =
Дата кодирования : UTC 2013-03-14 22:40:56
Программа кодирования : mkvmerge v3.3.0 ('Language') gebaut am Mar 24 2010 14:59:24
Библиотека кодирования : libebml v0.8.0 + libmatroska v0.9.0
Видео
Идентификатор : 1
Формат : AVC
Формат/Информация : Advanced Video Codec
Профиль формата : [email protected]
Параметр CABAC формата : Да
Параметр ReFrames формата : 12 кадров
Идентификатор кодека : V_MPEG4/ISO/AVC
Продолжительность : 1 ч. 45 м.
Битрейт : 2209 Кбит/сек
Ширина : 720 пикселей
Высота : 552 пикселя
Соотношение сторон : 1,85:1
Режим частоты кадров : Постоянный
Частота кадров : 25,000 кадров/сек
Цветовое пространство : YUV
Субдискретизация насыщенности : 4:2:0
Битовая глубина : 8 бит
Тип развёртки : Прогрессивная
Бит/(Пиксели*Кадры) : 0.222
Размер потока : 1,58 Гбайт (76%)
Заголовок : Год медуз / L'année des méduses DVDRip by SC Kosmos
Библиотека кодирования : x264 core 130 r2273 b3065e6
Настройки программы : cabac=1 / ref=12 / deblock=1:-2:-2 / analyse=0x3:0x112 / me=umh / subme=11 / psy=1 / psy_rd=1.00:0.15 / mixed_ref=1 / me_range=32 / chroma_me=1 / trellis=2 / 8x8dct=1 / cqm=0 / deadzone=21,11 / fast_pskip=1 / chroma_qp_offset=-3 / threads=12 / lookahead_threads=1 / sliced_threads=0 / nr=0 / decimate=1 / interlaced=0 / bluray_compat=0 / constrained_intra=0 / bframes=10 / b_pyramid=2 / b_adapt=1 / b_bias=0 / direct=3 / weightb=1 / open_gop=0 / weightp=1 / keyint=250 / keyint_min=25 / scenecut=40 / intra_refresh=0 / rc=2pass / mbtree=0 / bitrate=2209 / ratetol=1.0 / qcomp=0.60 / qpmin=0 / qpmax=69 / qpstep=4 / cplxblur=20.0 / qblur=0.5 / ip_ratio=1.40 / pb_ratio=1.30 / aq=1:1.00
Язык : French
Default : Нет
Forced : Нет
Аудио #1
Идентификатор : 2
Формат : AC-3
Формат/Информация : Audio Coding 3
Расширение режима : CM (complete main)
Параметр Endianness формата : Big
Идентификатор кодека : A_AC3
Продолжительность : 1 ч. 45 м.
Вид битрейта : Постоянный
Битрейт : 448 Кбит/сек
Каналы : 6 каналов
Расположение каналов : Front: L C R, Side: L R, LFE
Частота : 48,0 КГц
Битовая глубина : 16 бит
Метод сжатия : С потерями
Размер потока : 338 Мбайт (16%)
Заголовок : MVO
Язык : Russian
Default : Да
Forced : Нет
Аудио #2
Идентификатор : 3
Формат : AC-3
Формат/Информация : Audio Coding 3
Расширение режима : CM (complete main)
Параметр Endianness формата : Big
Идентификатор кодека : A_AC3
Продолжительность : 1 ч. 45 м.
Вид битрейта : Постоянный
Битрейт : 192 Кбит/сек
Каналы : 2 канала
Расположение каналов : Front: L R
Частота : 48,0 КГц
Битовая глубина : 16 бит
Метод сжатия : С потерями
Размер потока : 145 Мбайт (7%)
Язык : French
Default : Нет
Forced : Нет
Меню
00:00:00.000 : en:Chapter 01
00:02:15.800 : en:Chapter 02
00:05:23.600 : en:Chapter 03
00:08:29.600 : en:Chapter 04
00:13:46.400 : en:Chapter 05
00:17:06.400 : en:Chapter 06
00:20:19.000 : en:Chapter 07
00:25:32.400 : en:Chapter 08
00:26:42.200 : en:Chapter 09
00:30:38.000 : en:Chapter 10
00:35:19.200 : en:Chapter 11
00:38:15.400 : en:Chapter 12
00:40:59.200 : en:Chapter 13
00:43:43.000 : en:Chapter 14
00:46:01.600 : en:Chapter 15
00:50:41.600 : en:Chapter 16
00:52:14.600 : en:Chapter 17
00:59:03.800 : en:Chapter 18
01:03:20.000 : en:Chapter 19
01:05:31.400 : en:Chapter 20
01:06:54.400 : en:Chapter 21
01:12:19.000 : en:Chapter 22
01:13:42.000 : en:Chapter 23
01:18:46.000 : en:Chapter 24
01:23:28.600 : en:Chapter 25
01:26:53.200 : en:Chapter 26
01:28:41.400 : en:Chapter 27
01:36:37.800 : en:Chapter 28
01:41:58.800 : en:Chapter 29
01:43:33.000 : en:Chapter 30
01:45:19.200 : en:Chapter 31

Скриншот c названием фильма

Скриншоты

If your ratio falls below 0.3, you will not be able to download Torrents! More about the rating.

[erzsebet.pl].t51907.torrent
Torrent: Registered   [ 2017-12-11 02:36 ]

Download .torrent

Download

11 KB

Status: checked
Completed: 16 times
Size: 2.1 GB
terms.php

#1

11-Dec-2017 01:24

[Profile]  [PM] 
Display posts:    

You cannot post new topics in this forum
You cannot reply to topics in this forum
You cannot edit your posts in this forum
You cannot delete your posts in this forum
You cannot vote in polls in this forum
You cannot attach files in this forum
You can download files in this forum
User agreement
For copyright holders
Advertise on this site

Скачайте на халяву через торрент на трекере erzsebet.pl

!ATTENTION!
The site does not give electronic versions of products, and is engaged only in a collecting and cataloguing of the references sent and published at a forum by our readers. If you are the legal owner of any submitted material and do not wish that the reference to it was in our catalogue, contact us and we shall immediately remove her. Files for an exchange on tracker are given by users of a site, and the administration does not bear the responsibility for their maintenance. The request to not fill in the files protected by copyrights, and also files of the illegal maintenance!