Закусочная Будапешт / Snack Bar Budapest (Тинто Брасс / Tinto Brass) [1988, Италия, Мелодрама, Эротика, DVDRip] MVO

DL-List and Torrent activity
Size:  745 MB   |    Registered:  2 years 10 months   |    Completed:  16 times
Seeders:  2  
 
   
 
 

Max Levien ®

Longevity:
2 years 10 months
Posts:
20374

[Quote] 

Закусочная Будапешт / Snack Bar Budapest
Год выпуска: 1988
Страна: Италия
Жанр: Мелодрама, Эротика
Продолжительность: 01:42:28.200 (153705 frames)
Перевод: Профессиональный(многоголосный, закадровый)
Русские субтитры: нет
Режиссер: Тинто Брасс / Tinto Brass
В ролях: Джанкарло Джаннини, Филипп Леотар, Франсуа Негре, Раффаэлла Баракки, Сильви Орсье, Джорджо Тирабасси, Каталин Мурани, Джудитта Дель Веккьо, Валентина Деми, Клаудио Дель Фалько
Описание: Стареющий, отошедший от дел адвокат живет в свое удовольствие, но в какой-то момент и ему приходится платить по счетам. Для начала приходится класть в клинику опекаемую проститутку и пуститься на поиски денег. Так на горизонте появляется подозрительная личность по кличке «Молекула». Этот субъект скупил несколько обшарпанных отелей на побережье и собирается открыть в них игорную сеть. Адвокат ему нужен, конечно же, чтобы отмывать грязные делишки. За хорошее вознаграждение можно пойти на риск.
Качество: DVDRip
Формат: AVI
Видео кодек: XviD
Аудио кодек: МР3
Видео: 640x416 (1.54:1), 25 fps, XviD build 50 ~878 kbps avg, 0.13 bit/pixel
Аудио: 48 kHz, MPEG Layer 3, 2 ch, ~128.00 kbps avg

Медиаинфо

General
Complete name : E:\001 МОИ РАЗДАЧИ\Закусочная Будапешт 745\zakusochnaya_budapesht_745_[torrents.ru]_by_bm11.avi
Format : AVI
Format/Info : Audio Video Interleave
File size : 745 MiB
Duration : 1h 42mn
Overall bit rate : 1 016 Kbps
Writing application : VirtualDubMod 1.5.10.2 (build 2540/release)
Writing library : VirtualDubMod build 2540/release
Video
Format : MPEG-4 Visual
Format profile : Streaming [email protected]
Format settings, BVOP : Yes
Format settings, QPel : No
Format settings, GMC : No warppoints
Format settings, Matrix : Custom
Codec ID : XVID
Codec ID/Hint : XviD
Duration : 1h 42mn
Bit rate : 879 Kbps
Width : 640 pixels
Height : 416 pixels
Display aspect ratio : 1.538
Frame rate : 25.000 fps
Resolution : 24 bits
Colorimetry : 4:2:0
Scan type : Progressive
Bits/(Pixel*Frame) : 0.132
Stream size : 644 MiB (86%)
Writing library : XviD 50
Audio
Format : MPEG Audio
Format version : Version 1
Format profile : Layer 3
Codec ID : 55
Codec ID/Hint : MP3
Duration : 1h 42mn
Bit rate mode : Constant
Bit rate : 128 Kbps
Channel(s) : 2 channels
Sampling rate : 48.0 KHz
Resolution : 16 bits
Stream size : 93.8 MiB (13%)
Alignment : Aligned on interleaves
Interleave, duration : 40 ms (1.00 video frame)
Interleave, preload duration : 504 ms
Релиз группы:
--

If your ratio falls below 0.3, you will not be able to download Torrents! More about the rating.

[erzsebet.pl].t51910.torrent
Torrent: Registered   [ 2017-12-11 02:36 ]

Download .torrent

Download

15 KB

Status: checked
Completed: 16 times
Size: 745 MB
terms.php

#1

11-Dec-2017 01:24

[Profile]  [PM] 
Display posts:    

You cannot post new topics in this forum
You cannot reply to topics in this forum
You cannot edit your posts in this forum
You cannot delete your posts in this forum
You cannot vote in polls in this forum
You cannot attach files in this forum
You can download files in this forum
User agreement
For copyright holders
Advertise on this site

Скачайте на халяву через торрент на трекере erzsebet.pl

!ATTENTION!
The site does not give electronic versions of products, and is engaged only in a collecting and cataloguing of the references sent and published at a forum by our readers. If you are the legal owner of any submitted material and do not wish that the reference to it was in our catalogue, contact us and we shall immediately remove her. Files for an exchange on tracker are given by users of a site, and the administration does not bear the responsibility for their maintenance. The request to not fill in the files protected by copyrights, and also files of the illegal maintenance!