Пурпурный дождь / Purple Rain (Альберт Магноли / Albert Magnoli) [1984, США, мюзикл, драма, мелодрама, музыка, HDRip] Dub

DL-List and Torrent activity
Size:  1.46 GB   |    Registered:  2 years 10 months   |    Completed:  16 times
Seeders:  2  
 
   
 
 

Max Levien ®

Longevity:
2 years 10 months
Posts:
20374

[Quote] 

Пурпурный дождь / Purple Rain- Страна: США
Жанр: мюзикл, драма, мелодрама, музыка
Год выпуска: 1984
Продолжительность: 01:51:15-Перевод: Профессиональный (полное дублирование)
Субтитры: отсутствуют-Режиссер: Альберт Магноли / Albert Magnoli
В ролях: Принц, Аполлония Котеро, Моррис Дэй, Ольга Карлатос, Кларенс Уильямс III, Джером Бентон, Билли Спаркс, Джилл Джонс, Charles Huntsberry, Дез Дикерсон-Описание: История жизни, выживания и триумфа, звуковая дорожка самых крутых групп и суперзвезда рока Принц, человек, который живет только музыкой.-imdb.com: 6.30 (9708)
kinopoisk.ru: 6.987 (134)
Download sample-Качество видео: HDRip | исх. Purple.Rain.1984.720p.BluRay.Rus.2xEng.HDCLUB.mkv
Формат видео: AVI-Видео: 704x400 (1.76:1), 23.976 fps, XviD build 73 ~1488 kbps avg, 0.22 bit/pixel
Аудио: 48 kHz, AC3, 3/2 (L,C,R,l,r) + LFE ch, ~384.00 kbps avg | Профессиональный (полное дублирование)-

MediaInfo

General
Complete name : D:\Фильмы\Рипы\Purple.Rain.1984.HDRip.1.45.Gb.by Fredd Kruger.avi
Format : AVI
Format/Info : Audio Video Interleave
File size : 1.46 GiB
Duration : 1h 51mn
Overall bit rate : 1 882 Kbps
Writing application : VirtualDubMod 1.5.10.3 | www.virtualdub-fr.org || (build 2550/release)
Writing library : VirtualDubMod build 2550/release
Video
ID : 0
Format : MPEG-4 Visual
Format profile : Advanced [email protected]
Format settings, BVOP : 1
Format settings, QPel : No
Format settings, GMC : No warppoints
Format settings, Matrix : Custom
Codec ID : XVID
Codec ID/Hint : XviD
Duration : 1h 51mn
Bit rate : 1 489 Kbps
Width : 704 pixels
Height : 400 pixels
Display aspect ratio : 16:9
Frame rate : 23.976 fps
Color space : YUV
Chroma subsampling : 4:2:0
Bit depth : 8 bits
Scan type : Progressive
Compression mode : Lossy
Bits/(Pixel*Frame) : 0.221
Stream size : 1.16 GiB (79%)
Writing library : XviD 73
Audio
ID : 1
Format : AC-3
Format/Info : Audio Coding 3
Mode extension : CM (complete main)
Format settings, Endianness : Big
Codec ID : 2000
Duration : 1h 51mn
Bit rate mode : Constant
Bit rate : 384 Kbps
Channel count : 6 channels
Channel positions : Front: L C R, Side: L R, LFE
Sampling rate : 48.0 KHz
Bit depth : 16 bits
Compression mode : Lossy
Stream size : 306 MiB (20%)
Alignment : Split accross interleaves
Interleave, duration : 42 ms (1.00 video frame)
Interleave, preload duration : 500 ms

Screenshots

If your ratio falls below 0.3, you will not be able to download Torrents! More about the rating.

[erzsebet.pl].t51913.torrent
Torrent: Registered   [ 2017-12-11 02:36 ]

Download .torrent

Download

15 KB

Status: checked
Completed: 16 times
Size: 1.46 GB
terms.php

#1

11-Dec-2017 01:24

[Profile]  [PM] 
Display posts:    

You cannot post new topics in this forum
You cannot reply to topics in this forum
You cannot edit your posts in this forum
You cannot delete your posts in this forum
You cannot vote in polls in this forum
You cannot attach files in this forum
You can download files in this forum
User agreement
For copyright holders
Advertise on this site

Скачайте на халяву через торрент на трекере erzsebet.pl

!ATTENTION!
The site does not give electronic versions of products, and is engaged only in a collecting and cataloguing of the references sent and published at a forum by our readers. If you are the legal owner of any submitted material and do not wish that the reference to it was in our catalogue, contact us and we shall immediately remove her. Files for an exchange on tracker are given by users of a site, and the administration does not bear the responsibility for their maintenance. The request to not fill in the files protected by copyrights, and also files of the illegal maintenance!