Универмаг / Grandi magazzini (Кастеллано и Пипполо / Castellano e Pipolo) [1986, Италия, Комедия, DVDRip] AVO + original (ita)

DL-List and Torrent activity
Size:  1.95 GB   |    Registered:  2 years 10 months   |    Completed:  16 times
Seeders:  2   Leechers:  1   Show peers in full details
 
   
 
 

Max Levien ®

Longevity:
2 years 10 months
Posts:
20374

[Quote] 

Универмаг / Grandi magazzini- Страна: Италия
Жанр: Комедия
Год выпуска: 1986
Продолжительность: 1:50:36
Перевод: Авторский (одноголосый закадровый)
Субтитры: нет
Оригинальная аудиодорожка: итальянский-Режиссер: Кастеллано и Пипполо / Castellano e Pipolo-В ролях: Микеле Плачидо / Michele Placido, Лаура Антонелли / Laura Antonelli, Нино Манфреди / Nino Manfredi, Паоло Вилладжо / Paolo Villaggio, Орнелла Мути / Ornella Muti, Ренато Поццетто / Renato Pozzetto, Энрико Монтесано / Enrico Montesano, Массимо Болди / Massimo Boldi, Лино Банфи / Lino Banfi, Алессандро Хабер / Alessandro Haber, Сабрина Салерно / Sabrina-Описание: Разнообразные комические сценки из жизни огромного супермаркета, где всё перепутывается, все перепутываются и временами кажется, что проще разогнать всех служащих и снести здание, чем внести ясность в эту безумную сумятицу. Чего стоит одна девица, которая потеряла очки и в течение всего фильма не может найти выход из универмага, но при этом находится в полной уверенности, что у нее все в порядке.-Доп. информация: За исходный DVD9 и русскую дорожку спасибо 629629-Качество видео: DVDRip
Формат видео: AVI
Видео: 656*400 (1.64), 2 130 Kbps, 25.000 fps, 0.325 bit/pixel
Аудио 1: 48 kHz, AC3, 2 ch, ~192.00 kbps avg
Аудио 2: 48 kHz, AC3, 2 ch, ~192.00 kbps avg
Сэмпл: http://multi-up.com/312435

MediaInfo

omplete name : C:\Универмаг [Grandi Magazzini] Rus.It.DVDRip.avi
Format : AVI
Format/Info : Audio Video Interleave
File size : 1.95 GiB
Duration : 1h 50mn
Overall bit rate : 2 528 Kbps
Writing application : VirtualDubMod 1.5.10.2 (build 2540/release)
Writing library : VirtualDubMod build 2540/release
Video
ID : 0
Format : MPEG-4 Visual
Format profile : Advanced [email protected]
Format settings, BVOP : Yes
Format settings, QPel : No
Format settings, GMC : No warppoints
Format settings, Matrix : Default (MPEG)
Codec ID : XVID
Codec ID/Hint : XviD
Duration : 1h 50mn
Bit rate : 2 130 Kbps
Width : 656 pixels
Height : 400 pixels
Display aspect ratio : 1.640
Frame rate : 25.000 fps
Resolution : 8 bits
Colorimetry : 4:2:0
Scan type : Progressive
Bits/(Pixel*Frame) : 0.325
Stream size : 1.65 GiB (84%)
Writing library : XviD 1.2.0.dev47 (UTC 2006-11-01)
Audio #1
ID : 1
Format : AC-3
Format/Info : Audio Coding 3
Codec ID : 2000
Duration : 1h 50mn
Bit rate mode : Constant
Bit rate : 192 Kbps
Channel(s) : 2 channels
Channel positions : L R
Sampling rate : 48.0 KHz
Stream size : 152 MiB (8%)
Alignment : Split accross interleaves
Interleave, duration : 40 ms (1.00 video frame)
Interleave, preload duration : 500 ms
Audio #2
ID : 2
Format : AC-3
Format/Info : Audio Coding 3
Codec ID : 2000
Duration : 1h 50mn
Bit rate mode : Constant
Bit rate : 192 Kbps
Channel(s) : 2 channels
Channel positions : L R
Sampling rate : 48.0 KHz
Stream size : 152 MiB (8%)
Alignment : Split accross interleaves
Interleave, duration : 40 ms (1.00 video frame)
Interleave, preload duration : 500 ms

Скриншоты


If your ratio falls below 0.3, you will not be able to download Torrents! More about the rating.

[erzsebet.pl].t51915.torrent
Torrent: Registered   [ 2017-12-11 02:36 ]

Download .torrent

Download

20 KB

Status: checked
Completed: 16 times
Size: 1.95 GB
terms.php

#1

11-Dec-2017 01:24

[Profile]  [PM] 
Display posts:    

You cannot post new topics in this forum
You cannot reply to topics in this forum
You cannot edit your posts in this forum
You cannot delete your posts in this forum
You cannot vote in polls in this forum
You cannot attach files in this forum
You can download files in this forum
User agreement
For copyright holders
Advertise on this site

Скачайте на халяву через торрент на трекере erzsebet.pl

!ATTENTION!
The site does not give electronic versions of products, and is engaged only in a collecting and cataloguing of the references sent and published at a forum by our readers. If you are the legal owner of any submitted material and do not wish that the reference to it was in our catalogue, contact us and we shall immediately remove her. Files for an exchange on tracker are given by users of a site, and the administration does not bear the responsibility for their maintenance. The request to not fill in the files protected by copyrights, and also files of the illegal maintenance!