Бей в барабан медленно / Bang The Drum Slowly (Джон Д. Хэнкок / John D. Hancock) [1973, США, Драма, спорт, DVDRip] AVO А. Гаврилов

DL-List and Torrent activity
Size:  745 MB   |    Registered:  2 years 10 months   |    Completed:  16 times
Seeders:  2  
 
   
 
 

Max Levien ®

Longevity:
2 years 10 months
Posts:
20374

[Quote] 

Бей в барабан медленно / Bang The Drum Slowly
Страна: США
Жанр: Драма, спорт
Год выпуска: 1973
Продолжительность: 01:38:00
Перевод: Авторский (одноголосый закадровый) [Андрей Гаврилов]
Субтитры: нет
Режиссер: Джон Д. Хэнкок / John D. Hancock
В ролях: Майкл Мориарти, Роберт Де Ниро, Винсент Гардения, Фил Фостер, Энн Уэджуорт, Хэзер МакРэй, Селма Дайэмонд, Барбара Бэбкок, Морис Розенфилд, Том Лигон
Описание: История дружбы двух профессиональных бейсболистов: «звездного» Генри Уиггена и обычного кэтчера Брюса Пирсона. Во время межсезонья Брюс узнает, что неизлечимо болен, и Генри вместе с товарищами по команде пытается сделать все возможное, чтобы грядущий (последний) сезон стал для Брюса незабываемым.
Доп. информация: Данный DVDRip сделан из DVD5, за который, спасибо "Goldtwait"!!!
Сэмпл: http://multi-up.com/710736
Качество видео: DVDRip
Формат видео: AVI
Видео: 576x336 (1.71:1), 23.976 fps, XviD build 50, 925 kbps avg, 0.20 bit/pixel
Аудио: Russian: 48 kHz, MPEG Layer 3, 2 ch, 128.00 kbps avgРелиз группы:

MediaInfo

General
Complete name : E:\Мои раздачи\Bang the Drum Slowly_745_RG_All_Films.avi
Format : AVI
Format/Info : Audio Video Interleave
File size : 745 MiB
Duration : 1h 38mn
Overall bit rate : 1 063 Kbps
Writing application : VirtualDubMod 1.5.10.3 | www.virtualdub-fr.org || (build 2550/release)
Writing library : VirtualDubMod build 2550/release
Video
ID : 0
Format : MPEG-4 Visual
Format profile : Advanced [email protected]
Format settings, BVOP : Yes
Format settings, QPel : No
Format settings, GMC : No warppoints
Format settings, Matrix : Custom
Codec ID : XVID
Codec ID/Hint : XviD
Duration : 1h 38mn
Bit rate : 925 Kbps
Width : 576 pixels
Height : 336 pixels
Display aspect ratio : 16:9
Frame rate : 23.976 fps
Color space : YUV
Chroma subsampling : 4:2:0
Bit depth : 8 bits
Scan type : Progressive
Compression mode : Lossy
Bits/(Pixel*Frame) : 0.199
Stream size : 649 MiB (87%)
Writing library : XviD 1.2.1 (UTC 2008-12-04)
Audio
ID : 1
Format : MPEG Audio
Format version : Version 1
Format profile : Layer 3
Codec ID : 55
Codec ID/Hint : MP3
Duration : 1h 37mn
Bit rate mode : Constant
Bit rate : 128 Kbps
Channel(s) : 2 channels
Sampling rate : 48.0 KHz
Compression mode : Lossy
Stream size : 89.7 MiB (12%)
Alignment : Aligned on interleaves
Interleave, duration : 42 ms (1.00 video frame)
Interleave, preload duration : 504 ms
Writing library : LAME3.98r
Encoding settings : -m s -V 4 -q 2 -lowpass 17 -b 128

Скриншот c названием фильма

Скриншоты

If your ratio falls below 0.3, you will not be able to download Torrents! More about the rating.

[erzsebet.pl].t51916.torrent
Torrent: Registered   [ 2017-12-11 02:36 ]

Download .torrent

Download

15 KB

Status: checked
Completed: 16 times
Size: 745 MB
terms.php

#1

11-Dec-2017 01:24

[Profile]  [PM] 
Display posts:    

You cannot post new topics in this forum
You cannot reply to topics in this forum
You cannot edit your posts in this forum
You cannot delete your posts in this forum
You cannot vote in polls in this forum
You cannot attach files in this forum
You can download files in this forum
User agreement
For copyright holders
Advertise on this site

Скачайте на халяву через торрент на трекере erzsebet.pl

!ATTENTION!
The site does not give electronic versions of products, and is engaged only in a collecting and cataloguing of the references sent and published at a forum by our readers. If you are the legal owner of any submitted material and do not wish that the reference to it was in our catalogue, contact us and we shall immediately remove her. Files for an exchange on tracker are given by users of a site, and the administration does not bear the responsibility for their maintenance. The request to not fill in the files protected by copyrights, and also files of the illegal maintenance!