Каникулы / Vacation / National Lampoon's Vacation (Харольд Рэмис / Harold Ramis) [1983, США, Комедия, мелодрама, приключения, HDRip] MVO

DL-List and Torrent activity
Size:  702 MB   |    Registered:  2 years 10 months   |    Completed:  16 times
Seeders:  2  
 
   
 
 

Max Levien ®

Longevity:
2 years 10 months
Posts:
20374

[Quote] 

Каникулы / Vacation / National Lampoon's Vacation
Страна: США
Жанр: Комедия, мелодрама, приключения
Год выпуска: 1983
Продолжительность: 01:38:18
Перевод: Профессиональный (многоголосый закадровый)
Субтитры: нет
Режиссер: Харольд Рэмис / Harold Ramis
В ролях: Чеви Чейз, Беверли д'Анджело, Имоджин Кока, Рэнди Куэйд, Энтони Майкл Холл, Дана Бэррон, Эдди Брэкен, Брайан Дойл-Мюррей, Мириам Флинн, Джеймс Кич, Юджин Леви, Фрэнк Макрэй, Джон Кэнди, Джейн Краковски, Джон Диль
Описание: Итак! Всё решено и спланировано. Уже собраны и запакованы вещи. И, кажется,- ничто не сможет помешать вкусить прелести заслуженного отпуска. Не тут то было! Когда семейство Грисвольдов в полном составе собралось на каникулы, начался настоящий цирк! Руководитель «мероприятия», глава семьи Кларк Грисвольд, страстно жаждет умиротворённого единения семьи во время путешествия через всю страну, обещающего быть весьма захватывающим! Но сладким мечтам папаши Грисвольда не суждено сбыться: каникулы превращаются в поездку на американских горках в 2 460 миль в длину! Каждый вносит свою «лепту» в «разнообразие» культурной программы отдыха — и дядя Эдди, и тётя Эдна, и соблазнительница в «Феррари» и, конечно, тучный охранник!
Сэмпл: http://multi-up.com/325719
Качество видео: HDRip [рип с BDRip 720p]
Формат видео: AVI
Видео: XviD, 862 Kbps, 688 х 384 pixels, 23.976 fps
Аудио: MP3, 128 Kbps, 2 channels, 48.0 KHz

MediaInfo

General
Complete name : E:\Рабочая папка\Kanikuly.1983.HDRip.700mb.avi
Format : AVI
Format/Info : Audio Video Interleave
File size : 702 MiB
Duration : 1h 38mn
Overall bit rate : 999 Kbps
Writing application : VirtualDubMod 1.5.10.2 (build 2540/release)
Writing library : VirtualDubMod build 2540/release
Video
ID : 0
Format : MPEG-4 Visual
Format profile : Advanced [email protected]
Format settings, BVOP : Yes
Format settings, QPel : No
Format settings, GMC : No warppoints
Format settings, Matrix : Default (H.263)
Codec ID : XVID
Codec ID/Hint : XviD
Duration : 1h 38mn
Bit rate : 862 Kbps
Width : 688 pixels
Height : 384 pixels
Display aspect ratio : 16:9
Frame rate : 23.976 fps
Color space : YUV
Chroma subsampling : 4:2:0
Bit depth : 8 bits
Scan type : Progressive
Bits/(Pixel*Frame) : 0.136
Stream size : 606 MiB (86%)
Writing library : XviD 1.2.1 (UTC 2008-12-04)
Audio
ID : 1
Format : MPEG Audio
Format version : Version 1
Format profile : Layer 3
Codec ID : 55
Codec ID/Hint : MP3
Duration : 1h 38mn
Bit rate mode : Constant
Bit rate : 128 Kbps
Channel(s) : 2 channels
Sampling rate : 48.0 KHz
Stream size : 90.0 MiB (13%)
Alignment : Aligned on interleaves
Interleave, duration : 42 ms (1.00 video frame)
Interleave, preload duration : 504 ms
Writing library : LAME3.98r

Скриншот c названием фильма

Скриншоты

If your ratio falls below 0.3, you will not be able to download Torrents! More about the rating.

[erzsebet.pl].t51919.torrent
Torrent: Registered   [ 2017-12-11 02:36 ]

Download .torrent

Download

14 KB

Status: checked
Completed: 16 times
Size: 702 MB
terms.php

#1

11-Dec-2017 01:24

[Profile]  [PM] 
Display posts:    

You cannot post new topics in this forum
You cannot reply to topics in this forum
You cannot edit your posts in this forum
You cannot delete your posts in this forum
You cannot vote in polls in this forum
You cannot attach files in this forum
You can download files in this forum
User agreement
For copyright holders
Advertise on this site

Скачайте на халяву через торрент на трекере erzsebet.pl

!ATTENTION!
The site does not give electronic versions of products, and is engaged only in a collecting and cataloguing of the references sent and published at a forum by our readers. If you are the legal owner of any submitted material and do not wish that the reference to it was in our catalogue, contact us and we shall immediately remove her. Files for an exchange on tracker are given by users of a site, and the administration does not bear the responsibility for their maintenance. The request to not fill in the files protected by copyrights, and also files of the illegal maintenance!