Психоз 3 / Психо III / Psycho III (Энтони Перкинс / Anthony Perkins) [1986, США, ужасы, триллер, драма, HDRip] VO

DL-List and Torrent activity
Size:  744 MB   |    Registered:  2 years 10 months   |    Completed:  16 times
Seeders:  2  
 
   
 
 

Max Levien ®

Longevity:
2 years 10 months
Posts:
20374

[Quote] 

Психоз 3 / Психо III / Psycho III
Страна: США
Жанр: ужасы, триллер, драма
Год выпуска: 1986
Продолжительность: 01:32:49
Перевод: Одноголосый закадровый
Субтитры: нет
Режиссер: Энтони Перкинс / Anthony Perkins
В ролях: Энтони Перкинс, Диана Скаруид, Джефф Фэйи, Роберта Максвелл, Хью Гиллин, Ли Гарлингтон, Роберт Алан Браун, Гари Байер, Джульет Камминс, Стив Гуевара, Донован Скотт
Описание:
Несчастного Нормана снова посещает его покойная матушка. А в это время в мотель как назло нагрянули постояльцы. Перкинс настолько свыкся с ролью маменькиного сынка Нормана Бэйтса, что решил снимать теперь сам. Опять науськиваемый "мамашей", он "мочит" молодежь, а в конце забивает лопатой и претендентку на место мамаши, оказавшуюся родственницей. Самое удивительное, что полиция никак не хочет каждый раз верить, что он на такое способен, а вечно подозревает других.
Сэмпл
Автор релиза: (T-1000)
Источник: BDRip 720p
Качество видео: HDRip
Формат видео: AVI
Видео: 688x368 (1.87:1), 23.976 fps, XviD build 50 ~918 kbps avg, 0.15 bit/pixel
Аудио: 48 kHz, AC3 Dolby Digital, 2/0 (L,R) ch, ~192 kbps

MediaInfo

Общее
Полное имя : C:\Users\к\Desktop\фильмы\Psycho 3.1986.XviD.HDRip.avi
Формат : AVI
Формат/Информация : Audio Video Interleave
Размер файла : 744 Мбайт
Продолжительность : 1 ч. 32 м.
Общий поток : 1120 Кбит/сек
Программа кодирования : VirtualDubMod 1.5.10.3 | www.virtualdub-fr.org || (build 2550/release)
Библиотека кодирования : VirtualDubMod build 2550/release
Видео
Идентификатор : 0
Формат : MPEG-4 Visual
Профиль формата : Advanced [email protected]
Параметр BVOP формата : 2
Параметр QPel формата : Нет
Параметр GMC формата : Без точки перехода
Параметр матрицы формата : Default (MPEG)
Идентификатор кодека : XVID
Идентификатор кодека/Подсказка : XviD
Продолжительность : 1 ч. 32 м.
Битрейт : 919 Кбит/сек
Ширина : 688 пикселей
Высота : 368 пикселей
Соотношение сторон : 1,85:1
Частота кадров : 23,976 кадра/сек
Цветовое пространство : YUV
Субдискретизация насыщенности : 4:2:0
Битовая глубина : 8 бит
Тип развёртки : Прогрессивная
Метод сжатия : С потерями
Бит/(Пиксели*Кадры) : 0.151
Размер потока : 610 Мбайт (82%)
Библиотека кодирования : XviD 1.2.1 (UTC 2008-12-04)
Аудио
Идентификатор : 1
Формат : AC-3
Формат/Информация : Audio Coding 3
Расширение режима : CM (complete main)
Параметр Endianness формата : Big
Идентификатор кодека : 2000
Продолжительность : 1 ч. 32 м.
Вид битрейта : Постоянный
Битрейт : 192 Кбит/сек
Каналы : 2 канала
Расположение каналов : Front: L R
Частота : 48,0 КГц
Битовая глубина : 16 бит
Метод сжатия : С потерями
Размер потока : 127 Мбайт (17%)
Выравнивание : Разделение по промежуткам
Продолжительность промежутка : 42 мс. (1,00 видеокадр)
Время предзагрузки промежутка : 500 мс.

Скриншоты

If your ratio falls below 0.3, you will not be able to download Torrents! More about the rating.

[erzsebet.pl].t51922.torrent
Torrent: Registered   [ 2017-12-11 02:36 ]

Download .torrent

Download

15 KB

Status: checked
Completed: 16 times
Size: 744 MB
terms.php

#1

11-Dec-2017 01:24

[Profile]  [PM] 
Display posts:    

You cannot post new topics in this forum
You cannot reply to topics in this forum
You cannot edit your posts in this forum
You cannot delete your posts in this forum
You cannot vote in polls in this forum
You cannot attach files in this forum
You can download files in this forum
User agreement
For copyright holders
Advertise on this site

Скачайте на халяву через торрент на трекере erzsebet.pl

!ATTENTION!
The site does not give electronic versions of products, and is engaged only in a collecting and cataloguing of the references sent and published at a forum by our readers. If you are the legal owner of any submitted material and do not wish that the reference to it was in our catalogue, contact us and we shall immediately remove her. Files for an exchange on tracker are given by users of a site, and the administration does not bear the responsibility for their maintenance. The request to not fill in the files protected by copyrights, and also files of the illegal maintenance!