Маэстро ужаса / Повелитель ужаса / Il maestro del terrore / Alta tensione - Il maestro del terrore / The Prince of Terror (Ламберто Бава / Lamberto Bava) [1988, Италия, Канада, Франция, ужасы, TVRip > DVD9 (Custom)] AVO (Козлов) + Original Ita

DL-List and Torrent activity
Size:  4.48 GB   |    Registered:  2 years 10 months   |    Completed:  16 times
Seeders:  2  
 
   
 
 

Max Levien ®

Longevity:
2 years 10 months
Posts:
20374

[Quote] 

Маэстро ужаса / Повелитель ужаса / Il maestro del terrore / Alta tensione - Il maestro del terrore / The Prince of Terror
Страна: Италия, Канада, Франция
Студия: Reteitalia
Жанр: ужасы
Год выпуска: 1988
Продолжительность: 01:28:00
Перевод: Авторский (одноголосый закадровый) Козлов
Субтитры: нет
Оригинальная аудиодорожка: итальянский
Режиссер: Ламберто Бава / Lamberto Bava
В ролях: Дэвид Брендон, Марина Виро, Томас Арана
Описание: Известный румынский режиссер фильмов ужасов Винсент Омен увольняет сценариста Пола Хиллари, который, по его мнению, эксплуатирует старые штампы и клише, а также занимается плагиатом. Но Пол начинает мстить режиссеру, вторгаясь в его большой дом и третируя в течение ночи всю семью. Чем закончится этот безумный ночной кошмар?…
Картина снималась для телевидения. Сценарий написал неутомимый Дардано Сакетти, а спецэффекты сделал Сержио Стивалетти. Актер Томас Арана (род. в 1955 году) снимался в фильмах «Последнее искушение Христа» (1988), «Домино» (1988), «Церковь» (1989), «Охота за Красным октябрем» (1990), «Части тела» (1991), «Секта» (1991), «Телохранитель» (1992), «Тумстоун» (1993), «Секреты Лос-Анджелеса» (1997), «Гладиатор» (2000), «Перл Харбор» (2001), «Поющий детектив» (2003), «Превосходство Борна» (2004), «Рыба Франкенштейна» (2004), «Убийства душителей холмов» (2006). В молодости Томас путешествовал автостопом по всей Европе, пока не осел в Неаполе. У него итальянское и американское гражданство. Актер снялся в клипе Мадонны на песню «Bad Girl». Актер коллекционирует картины. Его собственный портрет написал Энди Уорхол.
Доп. информация: Диск из собсвтенной колекции.
Сэмпл: http://sendfile.su/1158908
Тип релиза: Tvrip>DVD9 (Custom)
Контейнер: DVD-Video
Видео: PAL 4:3 (704x576) VBR
Аудио: Russian (Dolby AC3, 192 Кбит/сек, 2 ch)
Аудио 2: Italiano (Dolby AC3, 256 Кбит/сек, 2 ch)
Аудио 3: English (Dolby AC3, 224 Кбит/сек, 2 ch)

DVDInfo

Size: 4.48 Gb ( 4 696 908 KBytes ) - DVD-9
Enabled regions: 1, 2, 3, 4, 5, 6, 7, 8
VTS_01 :
Play Length: 01:28:00
Video: PAL 4:3 (704x576) VBR
Audio:
Russian (Dolby AC3, 2 ch)
Italiano (Dolby AC3, 2 ch)
English (Dolby AC3, 2 ch)
Menu Video:
PAL 4:3 (704x576) VBR
Menu English Language Unit :
Root Menu

MediaInfo

Общее
Полное имя : J:\Maestro del terrore, Il_1988\VIDEO_TS\VTS_01_1.VOB
Формат : MPEG-PS
Размер файла : 1024 Мбайт
Продолжительность : 19 м.
Режим общего битрейта : Переменный
Общий поток : 7256 Кбит/сек
Видео
Идентификатор : 224 (0xE0)
Формат : MPEG Video
Версия формата : Version 2
Профиль формата : [email protected]
Параметр BVOP формата : Да
Параметр матрицы формата : По умолчанию
Продолжительность : 19 м.
Вид битрейта : Переменный
Битрейт : 6439 Кбит/сек
Максимальный битрейт : 9072 Кбит/сек
Ширина : 720 пикселей
Высота : 576 пикселей
Соотношение сторон : 4:3
Частота кадров : 25,000 кадров/сек
Стандарт вещания : PAL
Цветовое пространство : YUV
Субдискретизация насыщенности : 4:2:0
Битовая глубина : 8 бит
Тип развёртки : Прогрессивная
Метод сжатия : С потерями
Бит/(Пиксели*Кадры) : 0.621
Размер потока : 909 Мбайт (89%)
Основные цвета : BT.601 PAL
Характеристики трансфера : BT.470 System B, BT.470 System G
Коэффициенты матрицы : BT.601
Аудио #1
Идентификатор : 189 (0xBD)-128 (0x80)
Формат : AC-3
Формат/Информация : Audio Coding 3
Расширение режима : CM (complete main)
Параметр Endianness формата : Big
Режим смешивания : DVD-Video
Продолжительность : 19 м.
Вид битрейта : Постоянный
Битрейт : 192 Кбит/сек
Каналы : 2 канала
Расположение каналов : Front: L R
Частота : 48,0 КГц
Битовая глубина : 16 бит
Метод сжатия : С потерями
Размер потока : 27,1 Мбайт (3%)
Аудио #2
Идентификатор : 189 (0xBD)-129 (0x81)
Формат : AC-3
Формат/Информация : Audio Coding 3
Расширение режима : CM (complete main)
Параметр Endianness формата : Big
Режим смешивания : DVD-Video
Продолжительность : 19 м.
Вид битрейта : Постоянный
Битрейт : 256 Кбит/сек
Каналы : 2 канала
Расположение каналов : Front: L R
Частота : 48,0 КГц
Битовая глубина : 16 бит
Метод сжатия : С потерями
Размер потока : 36,1 Мбайт (4%)
Аудио #3
Идентификатор : 189 (0xBD)-130 (0x82)
Формат : AC-3
Формат/Информация : Audio Coding 3
Расширение режима : CM (complete main)
Параметр Endianness формата : Big
Режим смешивания : DVD-Video
Продолжительность : 19 м.
Вид битрейта : Постоянный
Битрейт : 224 Кбит/сек
Каналы : 2 канала
Расположение каналов : Front: L R
Частота : 48,0 КГц
Битовая глубина : 16 бит
Метод сжатия : С потерями
Размер потока : 31,6 Мбайт (3%)
Меню

Постеры

Скриншоты меню

Скриншоты

If your ratio falls below 0.3, you will not be able to download Torrents! More about the rating.

[erzsebet.pl].t51928.torrent
Torrent: Registered   [ 2017-12-11 02:36 ]

Download .torrent

Download

23 KB

Status: checked
Completed: 16 times
Size: 4.48 GB
terms.php

#1

11-Dec-2017 01:24

[Profile]  [PM] 
Display posts:    

You cannot post new topics in this forum
You cannot reply to topics in this forum
You cannot edit your posts in this forum
You cannot delete your posts in this forum
You cannot vote in polls in this forum
You cannot attach files in this forum
You can download files in this forum
User agreement
For copyright holders
Advertise on this site

Скачайте на халяву через торрент на трекере erzsebet.pl

!ATTENTION!
The site does not give electronic versions of products, and is engaged only in a collecting and cataloguing of the references sent and published at a forum by our readers. If you are the legal owner of any submitted material and do not wish that the reference to it was in our catalogue, contact us and we shall immediately remove her. Files for an exchange on tracker are given by users of a site, and the administration does not bear the responsibility for their maintenance. The request to not fill in the files protected by copyrights, and also files of the illegal maintenance!