Ночное пламя / Fire in the Night (Джон Стивен Соет / John Steven Soet) [1986, США, Боевик, VHSRip] VO Михаил Заугаров

DL-List and Torrent activity
Size:  1.37 GB   |    Registered:  2 years 10 months   |    Completed:  16 times
Seeders:  2  
 
   
 
 

Max Levien ®

Longevity:
2 years 10 months
Posts:
20374

[Quote] 

Ночное пламя / Fire in the Night
Страна: США
Жанр: Боевик
Год выпуска: 1986
Продолжительность: 01:30:05
Перевод: Одноголосый закадровый Михаил Заугаров
Субтитры: нет
Режиссер: Джон Стивен Соет / John Steven Soet
В ролях: Джон Мартин, Патрик Ст. Эсприт, Муни Зано, Грасиэлла Касильяс, Э.Дж. Пикер, Питер Генри Шредер, Ron Leath, Жаклин Маше, Марк Стюарт Лэйн, Робин Эванс
Описание: This drama combines equal portions of martial arts and feminist drama. Well-muscled Terry (Graciela Casillas) is relentlessly pursued by the rich, obnoxious Mike (Patrick St. Esprit), who has sex and matrimony as his objective. On one occasion, Mike nearly rapes Terry, who is saved only by the intervention of Jason (John Martin), an old friend. Meanwhile, Mike is putting pressure on his father to foreclose on a business
owned by Terry's father and the situation is getting desperate. So Terry challenges Mike, who is a karate champ, to a contest. They will have a fight; if she can throw him in the river, her father gets to keep his business and Mike will leave her alone. If she loses, Mike gets a night with her. Of course, Terry only has six weeks to learn how to defend herself but as fortune would have it, a miracle-working Philippine martial arts instructor has recently arrived in town.
[ПОМОГИТЕ СДЕЛАТЬ ПРАВИЛЬНЫЙ ПЕРЕВОД ОПИСАНИЯ.]
Доп. информация: Дорожка синхронизирована, ремастирована и наложена ale_x2008 при помощи Adobe Audition, Sony Vegas и VirtualDubMod.
За оцифрованную с VHS дорожку благодарим - team_6strun
Видеоряд мой (из сети)

Релиз
Сэмпл: https://yadi.sk/i/tcGGDfbWd8SvE
Качество видео: VHSRip
Формат видео: AVI
Видео: XviD build 73, 640x480 (1.33:1), 23.976 fps, 1971 kbps avg, 0.27 bit/pixel
Аудио: AC3 Dolby Digital, 48000Hz, 2/0 (L,R) ch, 192.00 kbps avg

MediaInfo

Ночное пламя - Fire in the Night [by ale_x2008].avi
Format : AVI
Format/Info : Audio Video Interleave
File size : 1.37 GiB
Duration : 1h 30mn
Overall bit rate : 2 173 Kbps
Movie name : Ночное пламя - Fire in the Night [by ale_x2008]
Director : ale_x2008
Genre : Action
Writing application : VirtualDubMod 1.5.10.3 (build 2550/release)
Original source form/Name : Movie
Copyright : Edich2
Comment : 03.12.2014
Video
ID : 0
Format : MPEG-4 Visual
Format profile : Advanced [email protected]
Format settings, BVOP : 1
Format settings, QPel : No
Format settings, GMC : No warppoints
Format settings, Matrix : Default (MPEG)
Codec ID : XVID
Codec ID/Hint : XviD
Duration : 1h 30mn
Bit rate : 1 972 Kbps
Width : 640 pixels
Height : 480 pixels
Display aspect ratio : 4:3
Frame rate : 23.976 fps
Color space : YUV
Chroma subsampling : 4:2:0
Bit depth : 8 bits
Scan type : Progressive
Compression mode : Lossy
Bits/(Pixel*Frame) : 0.268
Stream size : 1.24 GiB (91%)
Writing library : XviD 73
Audio
ID : 1
Format : AC-3
Format/Info : Audio Coding 3
Mode extension : CM (complete main)
Format settings, Endianness : Big
Codec ID : 2000
Duration : 1h 30mn
Bit rate mode : Constant
Bit rate : 192 Kbps
Channel(s) : 2 channels
Channel positions : Front: L R
Sampling rate : 48.0 KHz
Bit depth : 16 bits
Compression mode : Lossy
Stream size : 124 MiB (9%)
Alignment : Split accross interleaves
Interleave, duration : 42 ms (1.00 video frame)
Interleave, preload duration : 500 ms

Скриншоты


If your ratio falls below 0.3, you will not be able to download Torrents! More about the rating.

[erzsebet.pl].t51935.torrent
Torrent: Registered   [ 2017-12-11 02:36 ]

Download .torrent

Download

14 KB

Status: checked
Completed: 16 times
Size: 1.37 GB
terms.php

#1

11-Dec-2017 01:24

[Profile]  [PM] 
Display posts:    

You cannot post new topics in this forum
You cannot reply to topics in this forum
You cannot edit your posts in this forum
You cannot delete your posts in this forum
You cannot vote in polls in this forum
You cannot attach files in this forum
You can download files in this forum
User agreement
For copyright holders
Advertise on this site

Скачайте на халяву через торрент на трекере erzsebet.pl

!ATTENTION!
The site does not give electronic versions of products, and is engaged only in a collecting and cataloguing of the references sent and published at a forum by our readers. If you are the legal owner of any submitted material and do not wish that the reference to it was in our catalogue, contact us and we shall immediately remove her. Files for an exchange on tracker are given by users of a site, and the administration does not bear the responsibility for their maintenance. The request to not fill in the files protected by copyrights, and also files of the illegal maintenance!