Псих команда / Команда мечты / The Dream Team (Ховард Зифф / Howard Zieff) [1989, США, Комедия, DVDRip-AVC] MVO + eng

DL-List and Torrent activity
Size:  1.6 GB   |    Registered:  2 years 10 months   |    Completed:  16 times
Seeders:  3  
 
   
 
 

Max Levien ®

Longevity:
2 years 10 months
Posts:
20374

[Quote] 

-Псих команда / Команда мечты / The Dream Team- Страна: США
Жанр: Комедия
Год выпуска: 1989
Продолжительность: 01:47:41
Перевод: Профессиональный (многоголосый закадровый)
Субтитры: нет
Оригинальная аудиодорожка: английский - отдельно
Режиссер: Ховард Зифф / Howard Zieff
В ролях: Майкл Китон (Michael Keaton), Кристофер Ллойд (Christopher Lloyd), Питер Бойл (Peter Boyle), Стефен Ферст (Stephen Furst), Деннис Буцикарис (Dennis Boutsikaris), Лоррейн Бракко (Lorraine Bracco), Майло О`Ши (Milo O'Shea), Филип Боско (Philip Bosco), Джеймс Римар (James Remar), Джек Гилпин (Jack Gilpin)
Описание:
Прогрессивный врач-психиатр, считая что это может помочь в лечении его подопечных, вывозит четырех психов в город на бейсбольный матч. Однако, волей обстоятельств, он попадает в крутую историю и исчезает, а психи остаются в городе одни, предоставленные сами себе. Билли (Китон), патологический лжец с болезненной склонностью к паникерству, попадает из одной истории в другую вместе со своими не совсем адекватными товарищами: Генри (Кристофер Ллойд), придурком-ловкачом, Джеком (Питер Бойл), бывшим высокопоставленным рекламистам, считающим себя Христом, и Альбертом (Стивен Ферст), кататоником, проходящим курс психоанализа…
В этом развеселом фарсе компания психов переживает массу невероятных приключений, пытаясь найти своего доктора и вызволить его из лап парочки продажных копов.
Доп. информация:
слоган: «four guys on a field trip to reality.»
сценарий: Джон Коннолли, Дэвид Лука
продюсер: Джозеф М. Карачиоло, Джон Коннолли, Кристофер В. Найт, ...
оператор: Адам Холендер
композитор: Дэвид МакХью
художник: Тодд Халлоуэлл, Кристофер Новак, Рут Морли, ...
монтаж: Кэрролл Тимоти О’Мира

бюджет: $15 000 000
сборы в США: $28 890 240
премьера (мир): 7 апреля 1989

IMDb: 6.20 (5 634)
Семпл: 11мб
Исходник: DVD9
Качество видео: DVDRip-AVC big1987
Формат видео: MKV
Видео: кодек: h.264, размер кадра: 720x552 @ 1024x552, битрейт: 1745 Kbps, Bits/(Pixel*Frame) : 0.176
Аудио 1: аудиокодек: AC3 2.0, 48 KHz, битрейт аудио: 192 кб/с - Многоголосный
Аудио 2: аудиокодек: AC3 2.0, 48 KHz, битрейт аудио: 192 кб/с - Оригинал - отдельно
Размер рипа: 1.45гб

MediaInfo

Video
ID : 1
Format : AVC
Format/Info : Advanced Video Codec
Format profile : [email protected]
Format settings, CABAC : Yes
Format settings, ReFrames : 8 frames
Codec ID : V_MPEG4/ISO/AVC
Duration : 1h 47mn
Bit rate : 1 745 Kbps
Width : 720 pixels
Height : 552 pixels
Display aspect ratio : 1.855
Frame rate : 25.000 fps
Color space : YUV
Chroma subsampling : 4:2:0
Bit depth : 8 bits
Scan type : Progressive
Bits/(Pixel*Frame) : 0.176
Stream size : 1.28 GiB (88%)
Writing library : x264 core 116 r2074 2641b9e
Encoding settings : cabac=1 / ref=8 / deblock=1:-3:-2 / analyse=0x3:0x133 / me=umh / subme=11 / psy=1 / psy_rd=1.00:0.20 / mixed_ref=1 / me_range=32 / chroma_me=1 / trellis=2 / 8x8dct=1 / cqm=0 / deadzone=21,11 / fast_pskip=1 / chroma_qp_offset=-3 / threads=6 / sliced_threads=0 / nr=0 / decimate=1 / interlaced=0 / bluray_compat=0 / constrained_intra=0 / bframes=4 / b_pyramid=2 / b_adapt=2 / b_bias=0 / direct=3 / weightb=1 / open_gop=0 / weightp=2 / keyint=250 / keyint_min=25 / scenecut=40 / intra_refresh=0 / rc_lookahead=60 / rc=2pass / mbtree=1 / bitrate=1745 / ratetol=1.0 / qcomp=0.60 / qpmin=0 / qpmax=69 / qpstep=4 / cplxblur=20.0 / qblur=0.5 / ip_ratio=1.40 / aq=1:1.00
Audio
ID : 2
Format : AC-3
Format/Info : Audio Coding 3
Format profile : Dolby Digital
Mode extension : CM (complete main)
Codec ID : A_AC3
Duration : 1h 47mn
Bit rate mode : Constant
Bit rate : 192 Kbps
Channel(s) : 2 channels
Channel positions : Front: L R
Sampling rate : 48.0 KHz
Bit depth : 16 bits
Compression mode : Lossy
Stream size : 148 MiB (10%)
Audio
Format : AC-3
Format/Info : Audio Coding 3
Format profile : Dolby Digital
Mode extension : CM (complete main)
Duration : 1h 47mn
Bit rate mode : Constant
Bit rate : 192 Kbps
Channel(s) : 2 channels
Channel positions : Front: L R
Sampling rate : 48.0 KHz
Bit depth : 16 bits
Compression mode : Lossy
Stream size : 148 MiB (100%)

Скриншот c названием фильма

Скриншоты / Сравнение с исходником

Рип Исходник

If your ratio falls below 0.3, you will not be able to download Torrents! More about the rating.

[erzsebet.pl].t51936.torrent
Torrent: Registered   [ 2017-12-11 02:36 ]

Download .torrent

Download

17 KB

Status: checked
Completed: 16 times
Size: 1.6 GB
terms.php

#1

11-Dec-2017 01:24

[Profile]  [PM] 
Display posts:    

You cannot post new topics in this forum
You cannot reply to topics in this forum
You cannot edit your posts in this forum
You cannot delete your posts in this forum
You cannot vote in polls in this forum
You cannot attach files in this forum
You can download files in this forum
User agreement
For copyright holders
Advertise on this site

Скачайте на халяву через торрент на трекере erzsebet.pl

!ATTENTION!
The site does not give electronic versions of products, and is engaged only in a collecting and cataloguing of the references sent and published at a forum by our readers. If you are the legal owner of any submitted material and do not wish that the reference to it was in our catalogue, contact us and we shall immediately remove her. Files for an exchange on tracker are given by users of a site, and the administration does not bear the responsibility for their maintenance. The request to not fill in the files protected by copyrights, and also files of the illegal maintenance!