Тени становятся черными / Shadows Run Black (Говард Херд / Howard Heard) [1986, США, ужасы, слэшер, DVDRip] VO (Хэм)

DL-List and Torrent activity
Size:  611 MB   |    Registered:  2 years 10 months   |    Completed:  16 times
Seeders:  3  
 
   
 
 

Max Levien ®

Longevity:
2 years 10 months
Posts:
20374

[Quote] 

Тени становятся черными / Shadows Run Black
Страна: США
Жанр: ужасы, слэшер
Год выпуска: 1986
Продолжительность: 1:25:35
Перевод: Одноголосый закадровый (Хэм)
Субтитры: нет
Режиссер: Говард Херд / Howard Heard
В ролях: Уильям Калцер, Элизабет Троспер, Ши Портер, Джулиус Метоер, Кевин Костнер
Описание: Неизвестный маньяк безжалостно выпиливает студенток местного колледжа. Расследование берёт в свои руки суровый коп Райделл Кинг, дочь которого когда-то тоже была убита, а преступник так и остался не найденным.
Доп. информация: IMDB / Кинопоиск, Ragedevil - благодарность за рип
Качество видео: DVDRip
Формат видео: AVI
Видео: XVID, 512x384, 4:3, 25,0 fps, 796 kbps
Аудио: MP3, 48 kHz, 192 kbps, 2.0

MediaInfo

General
Complete name : D:\Movs\Shadows.Run.Black.1986.Rus.avi
Format : AVI
Format/Info : Audio Video Interleave
File size : 611 MiB
Duration : 1h 25mn
Overall bit rate : 997 Kbps
Writing application : Nandub v1.0rc2
Writing library : VirtualDub build 32817/release
Video
ID : 0
Format : MPEG-4 Visual
Format profile : [email protected]
Format settings, BVOP : 2
Format settings, QPel : No
Format settings, GMC : No warppoints
Format settings, Matrix : Default (H.263)
Codec ID : XVID
Codec ID/Hint : XviD
Duration : 1h 25mn
Bit rate : 796 Kbps
Width : 512 pixels
Height : 384 pixels
Display aspect ratio : 4:3
Frame rate : 25.000 fps
Color space : YUV
Chroma subsampling : 4:2:0
Bit depth : 8 bits
Scan type : Progressive
Compression mode : Lossy
Bits/(Pixel*Frame) : 0.162
Stream size : 487 MiB (80%)
Writing library : XviD 0.0.09 (UTC 2003-03-25)
Audio
ID : 1
Format : MPEG Audio
Format version : Version 1
Format profile : Layer 3
Mode : Joint stereo
Codec ID : 55
Codec ID/Hint : MP3
Duration : 1h 25mn
Bit rate mode : Constant
Bit rate : 192 Kbps
Channel(s) : 2 channels
Sampling rate : 48.0 KHz
Compression mode : Lossy
Stream size : 118 MiB (19%)
Alignment : Split accross interleaves
Interleave, duration : 40 ms (1.00 video frame)
Interleave, preload duration : 500 ms

Скриншот c названием фильма

Скриншоты

If your ratio falls below 0.3, you will not be able to download Torrents! More about the rating.

[erzsebet.pl].t51944.torrent
Torrent: Registered   [ 2017-12-11 02:36 ]

Download .torrent

Download

12 KB

Status: checked
Completed: 16 times
Size: 611 MB
terms.php

#1

11-Dec-2017 01:23

[Profile]  [PM] 
Display posts:    

You cannot post new topics in this forum
You cannot reply to topics in this forum
You cannot edit your posts in this forum
You cannot delete your posts in this forum
You cannot vote in polls in this forum
You cannot attach files in this forum
You can download files in this forum
User agreement
For copyright holders
Advertise on this site

Скачайте на халяву через торрент на трекере erzsebet.pl

!ATTENTION!
The site does not give electronic versions of products, and is engaged only in a collecting and cataloguing of the references sent and published at a forum by our readers. If you are the legal owner of any submitted material and do not wish that the reference to it was in our catalogue, contact us and we shall immediately remove her. Files for an exchange on tracker are given by users of a site, and the administration does not bear the responsibility for their maintenance. The request to not fill in the files protected by copyrights, and also files of the illegal maintenance!