Федерал / The Federal Man (Мануэль Эстеба / Manuel Esteba) [1972, Испания, Италия, вестерн, DVDRip] VO (chayka2) + Original Eng

DL-List and Torrent activity
Size:  1.44 GB   |    Registered:  2 years 10 months   |    Completed:  16 times
Seeders:  2  
 
   
 
 

Max Levien ®

Longevity:
2 years 10 months
Posts:
20374

[Quote] 

Федерал / The Federal Man / Una Cuerda al amanecer /англо-итальянская
Страна: Испания, Италия
Жанр: вестерн
Год выпуска: 1972
Продолжительность: 01:15:23
Перевод: Одноголосый закадровый chayka2
Субтитры: нет
Оригинальная аудиодорожка: английский
Режиссер: Мануэль Эстеба / Manuel Esteba
В ролях: Пьер Брис, Стивен Тед, Фернандо Санчо, Моника Рандалл, Марта Флорес, Антонио Молино Рохо
Описание: Поздний испано-итальянский вестерн. По просьбе шерифа Сан-Луиса, в город приезжает Федеральный маршал, для расследования незаконных сделок по продаже земли. Поселенцев терроризирует банда Барретта, отнимая земли под угрозой расправы. Один из поселенцев находит золотую жилу и это ещё более усугубляет ситуацию.
Доп. информация: Вашему вниманию предлагается англо-итальянская версия фильма "Una Cuerda al amanecer (Веревка на заре)", другое название *Казнь на рассвете". В этой версии переписан сценарий, добавлены диалоги и фрагменты, которые отсутствуют в испанской. Для полноты картины рекомендую посмотреть обе версии. Испанская считается более последовательной, чем англо-итальянская. Рип сделан мной с ДВД. Перевод и озвучка chayka2
Сэмпл: http://multi-up.com/1051889
Качество видео: DVDRip
Формат видео: AVI
Видео: Video: Xvid 720x480 23.976fps 2327 Kbps
Аудио: Dolby AC3 48000Hz stereo 192kbps русская
Аудио 2: Dolby AC3 48000Hz stereo 192kbps английская

MediaInfo

General
Complete name : D:\The Federal Man_1972_DVDRIP_by _chayka2.avi
Format : AVI
Format/Info : Audio Video Interleave
File size : 1.44 GiB
Duration : 1h 15mn
Overall bit rate : 2 726 Kbps
Writing application : VirtualDubMod 1.5.10.2 (build 2542/release)
Writing library : VirtualDubMod build 2542/release
Video
ID : 0
Format : MPEG-4 Visual
Format profile : Advanced [email protected]
Format settings, BVOP : Yes
Format settings, QPel : No
Format settings, GMC : No warppoints
Format settings, Matrix : Default (H.263)
Codec ID : XVID
Codec ID/Hint : XviD
Duration : 1h 15mn
Bit rate : 2 327 Kbps
Width : 720 pixels
Height : 480 pixels
Display aspect ratio : 3:2
Frame rate : 23.976 fps
Standard : NTSC
Color space : YUV
Chroma subsampling : 4:2:0
Bit depth : 8 bits
Scan type : Progressive
Compression mode : Lossy
Bits/(Pixel*Frame) : 0.281
Stream size : 1.23 GiB (85%)
Writing library : XviD 1.2.1 (UTC 2008-12-04)
Audio #1
ID : 1
Format : AC-3
Format/Info : Audio Coding 3
Mode extension : CM (complete main)
Format settings, Endianness : Big
Codec ID : 2000
Duration : 1h 15mn
Bit rate mode : Constant
Bit rate : 192 Kbps
Channel(s) : 2 channels
Channel positions : Front: L R
Sampling rate : 48.0 KHz
Bit depth : 16 bits
Compression mode : Lossy
Stream size : 104 MiB (7%)
Alignment : Split accross interleaves
Interleave, duration : 42 ms (1.00 video frame)
Interleave, preload duration : 500 ms

Скриншот c названием фильма

Скриншоты





If your ratio falls below 0.3, you will not be able to download Torrents! More about the rating.

[erzsebet.pl].t51947.torrent
Torrent: Registered   [ 2017-12-11 02:36 ]

Download .torrent

Download

15 KB

Status: checked
Completed: 16 times
Size: 1.44 GB
terms.php

#1

11-Dec-2017 01:23

[Profile]  [PM] 
Display posts:    

You cannot post new topics in this forum
You cannot reply to topics in this forum
You cannot edit your posts in this forum
You cannot delete your posts in this forum
You cannot vote in polls in this forum
You cannot attach files in this forum
You can download files in this forum
User agreement
For copyright holders
Advertise on this site

Скачайте на халяву через торрент на трекере erzsebet.pl

!ATTENTION!
The site does not give electronic versions of products, and is engaged only in a collecting and cataloguing of the references sent and published at a forum by our readers. If you are the legal owner of any submitted material and do not wish that the reference to it was in our catalogue, contact us and we shall immediately remove her. Files for an exchange on tracker are given by users of a site, and the administration does not bear the responsibility for their maintenance. The request to not fill in the files protected by copyrights, and also files of the illegal maintenance!