Циничный, подлый, жестокий / Il cinico, l'infame, il violento / The Cynic, the Rat & the Fist (Умберто Ленци / Umberto Lenzi) [1977, Италия, Триллер, Еврокрайм, DVDRip-AVC] VO (Антон Киреев) + Sub Rus + Original Ita

DL-List and Torrent activity
Size:  1.96 GB   |    Registered:  2 years 10 months   |    Completed:  16 times
Seeders:  3  
 
   
 
 

Max Levien ®

Longevity:
2 years 10 months
Posts:
20374

[Quote] 

Циничный, подлый, жестокий / Il cinico, l'infame, il violento / The Cynic, the Rat & the Fist
Страна: Италия
Жанр: Триллер, Еврокрайм
Год выпуска: 1977
Продолжительность: 01:35:08
Перевод: Одноголосый закадровый Антон Киреев
Субтитры: русские
Оригинальная аудиодорожка: итальянский
Режиссёр: Умберто Ленци / Umberto Lenzi
Актёры: Маурицио Мерли / Maurizio Merli, Джон Саксон / John Saxon, Томас Милиан / Tomas Milian, Ренцо Пальмер / Renzo Palmer, Габриэла Лепори / Gabriella Lepori, Клаудио Ундари / Claudio Undari, Бруно Кораццари / Bruno Corazzari, Марко Гульельми / Marco Guglielmi
Описание: Из тюрьмы бежит Луиджи Маетто по кличке «Китаец». Первым своим делом на свободе «Китаец» считает отомстить бывшему полицейскому Леонардо Танци, из-за показаний которого он был приговорён к пожизненному заключению. В тот же вечер на Леонардо Танци нападают двое убийц, раня его в плечо. Как ни странно, выжить бывшему полицейскому помогла неисправная электропроводка! Крутой итальянский боевик 1977 года на вечную тему борьбы преступников и полиции. Снято очень динамично, смотрится на одном дыхании. Отличная музыка Франко Микалицци.
Доп. информация: Итак, встречайте, три главные звезды этой картины:
ЦИНИЧНЫЙ
Экс-комиссар полиции мало чем отличающийся от бандита. Через два года очень похожий образ воплотит, а потом и донесёт до советского зрителя блистательный Жан-Поль Бельмондо. Его дивизионный комиссар Боровиц из отдела надзора за полицией произведёт колоссальнейшее впечатление на неокрепшую психику моего поколения. Это вам не правильный до тошноты и скучный до вывиха челюсти при зевоте майор Знаменский из «Следствие ведут знатоки». А здесь, значит, был его итальянский предтеча.
ПОДЛЫЙ
«Китаец», пожалуй, главное украшение этого фильма. Харизматичный, драйвовый, ироничный, стильный, вероломный, да ещё и постоянно матерящийся! Потрясающий образ, великолепная актёрская игра!
Фишка в виде некрологов совершенно офигительная! А его подручные, это ж, натурально, кладезь угара! Через 21 год Гарри-топор скажет про них своему подручному Барри-баптисту фразу на все времена: «Ты только не поручай это дело полным идиотам!».
ЖЕСТОКИЙ
Перебив вместе с Брюсом Ли всех плохих парней на известном острове, но ещё не добравшись до разборок с Федей Крюковым и тем более до отлова братьев Геко, Джон Сэксон завернул в Вечный Город что бы стать там Крёстным отцом. Что ж, экстремально жестокий и в то же время исключительно стильный мафиози вышел у него на пять с плюсом, это без вопросов. Да и матерился он хоть и поменьше Китайца, но явно от сердца, всю душу в матюки вкладывал!
(c) 7654
IMDB: http://www.imdb.com/title/tt0075852/
КиноПоиск: https://www.kinopoisk.ru/film/175483/
Сэмпл: http://multi-up.com/1111103
Качество видео: DVDRip-AVC
Формат видео: MKV
Видео: Advanced Video Codec, 720x304 (2,35:1), 2500 kbit/sec, 25,000 fps
Аудио 1: Audio Coding 3, 224 kbit/sec, 48,0 kHz, stereo (Антон Киреев)
Аудио 2: Audio Coding 3, 224 kbit/sec, 48,0 kHz, stereo (итальянский оригинал)
Формат субтитров: softsub (SRT)
Доп. информация о субтитрах: Переводман

MediaInfo

Общее
Уникальный идентификатор : 248055615719647023767116101084513492347 (0xBA9DC618FCF410E1B2F2C6630072DD7B)
Полное имя : Il.cinico.linfame.il.violento.1977.DVDRip.x264.Perevodman.Subs.mkv
Формат : Matroska
Версия формата : Version 4 / Version 2
Размер файла : 1,96 Гбайт
Продолжительность : 1 ч. 35 м.
Общий поток : 2951 Кбит/сек
Название фильма : Релиз Переулка Переводмана
Дата кодирования : UTC 2016-07-14 22:29:39
Программа кодирования : mkvmerge v6.0.0 ('Coming Up For Air') built on Jan 20 2013 09:52:00
Библиотека кодирования : libebml v1.3.0 + libmatroska v1.4.0
Обложка : Yes
Attachments : cover.jpg
Видео
Идентификатор : 1
Формат : AVC
Формат/Информация : Advanced Video Codec
Профиль формата : [email protected]
Параметр CABAC формата : Да
Параметр ReFrames формата : 9 кадров
Идентификатор кодека : V_MPEG4/ISO/AVC
Продолжительность : 1 ч. 35 м.
Битрейт : 2500 Кбит/сек
Ширина : 720 пикселей
Высота : 304 пикселя
Соотношение сторон : 2,35:1
Режим частоты кадров : Постоянный
Частота кадров : 25,000 кадров/сек
Цветовое пространство : YUV
Субдискретизация насыщенности : 4:2:0
Битовая глубина : 8 бит
Тип развёртки : Прогрессивная
Бит/(Пиксели*Кадры) : 0.457
Размер потока : 1,62 Гбайт (83%)
Библиотека кодирования : x264 core 125 r2208 d9d2288
Настройки программы : cabac=1 / ref=9 / deblock=1:-3:-3 / analyse=0x3:0x133 / me=umh / subme=9 / psy=1 / psy_rd=1.00:0.15 / mixed_ref=1 / me_range=48 / chroma_me=1 / trellis=2 / 8x8dct=1 / cqm=0 / deadzone=21,11 / fast_pskip=0 / chroma_qp_offset=-3 / threads=6 / lookahead_threads=1 / sliced_threads=0 / nr=0 / decimate=1 / interlaced=0 / bluray_compat=0 / constrained_intra=0 / bframes=11 / b_pyramid=2 / b_adapt=2 / b_bias=0 / direct=3 / weightb=1 / open_gop=0 / weightp=2 / keyint=250 / keyint_min=25 / scenecut=40 / intra_refresh=0 / rc_lookahead=50 / rc=2pass / mbtree=1 / bitrate=2500 / ratetol=1.0 / qcomp=0.60 / qpmin=0 / qpmax=69 / qpstep=4 / cplxblur=20.0 / qblur=0.5 / ip_ratio=1.40 / aq=1:1.00
Default : Да
Forced : Нет
Аудио #1
Идентификатор : 2
Формат : AC-3
Формат/Информация : Audio Coding 3
Расширение режима : CM (complete main)
Параметр Endianness формата : Big
Идентификатор кодека : A_AC3
Продолжительность : 1 ч. 35 м.
Вид битрейта : Постоянный
Битрейт : 224 Кбит/сек
Каналы : 2 канала
Расположение каналов : Front: L R
Частота : 48,0 КГц
Частота кадров : 31,250 кадров/сек (1536 spf)
Метод сжатия : С потерями
Размер потока : 152 Мбайт (8%)
Заголовок : Перевод Переводман | Озвучка А.Киреев
Язык : Russian
Default : Да
Forced : Нет
Аудио #2
Идентификатор : 3
Формат : AC-3
Формат/Информация : Audio Coding 3
Расширение режима : CM (complete main)
Параметр Endianness формата : Big
Идентификатор кодека : A_AC3
Продолжительность : 1 ч. 35 м.
Вид битрейта : Постоянный
Битрейт : 224 Кбит/сек
Каналы : 2 канала
Расположение каналов : Front: L R
Частота : 48,0 КГц
Частота кадров : 31,250 кадров/сек (1536 spf)
Метод сжатия : С потерями
Размер потока : 152 Мбайт (8%)
Заголовок : Original
Язык : Italian
Default : Нет
Forced : Нет
Текст
Идентификатор : 4
Формат : UTF-8
Идентификатор кодека : S_TEXT/UTF8
Идентификатор кодека/Информация : UTF-8 Plain Text
Заголовок : Перевод Переводман
Язык : Russian
Default : Да
Forced : Нет

Скриншот c названием фильма

Скриншоты

If your ratio falls below 0.3, you will not be able to download Torrents! More about the rating.

[erzsebet.pl].t51948.torrent
Torrent: Registered   [ 2017-12-11 02:36 ]

Download .torrent

Download

20 KB

Status: checked
Completed: 16 times
Size: 1.96 GB
terms.php

#1

11-Dec-2017 01:23

[Profile]  [PM] 
Display posts:    

You cannot post new topics in this forum
You cannot reply to topics in this forum
You cannot edit your posts in this forum
You cannot delete your posts in this forum
You cannot vote in polls in this forum
You cannot attach files in this forum
You can download files in this forum
User agreement
For copyright holders
Advertise on this site

Скачайте на халяву через торрент на трекере erzsebet.pl

!ATTENTION!
The site does not give electronic versions of products, and is engaged only in a collecting and cataloguing of the references sent and published at a forum by our readers. If you are the legal owner of any submitted material and do not wish that the reference to it was in our catalogue, contact us and we shall immediately remove her. Files for an exchange on tracker are given by users of a site, and the administration does not bear the responsibility for their maintenance. The request to not fill in the files protected by copyrights, and also files of the illegal maintenance!