Кокон 2: Возвращение / Cocoon: The Return (Дэниел Питри / Daniel Petrie) [1988, США, фантастика, мелодрама, комедия, WEB-DLRip-AVC] MVO + DVO + AVO + Sub (rus, eng)

DL-List and Torrent activity
Size:  2.86 GB   |    Registered:  2 years 10 months   |    Completed:  16 times
Seeders:  4  
 
   
 
 

Max Levien ®

Longevity:
2 years 10 months
Posts:
20374

[Quote] 

Кокон 2: Возвращение
Cocoon: The Return
«This holiday season, journey to the most wonderful place in the universe... home»
Страна: США
Жанр: фантастика, мелодрама, комедия, детектив, приключения
Год выпуска: 1988
Продолжительность: 01:56:22
Перевод: #1 Профессиональный (многоголосый, закадровый) [1 канал] (со вставкой DVO на вырезанный фрагмент)
#2 Профессиональный (двухголосый закадровый)
#3 Авторский (одноголосый закадровый) [Юрий Живов]
Субтитры: русские, английские
Оригинальная аудиодорожка: английский
Режиссер: Дэниел Питри / Daniel Petrie
В ролях: Дон Амичи, Уилфорд Бримли, Кортни Кокс, Хьюм Кронин, Джек Гилфорд, Стив Гуттенберг, Бэррет Оливер, Морин Стейплтон, Элейн Стритч, Джессика Тэнди, Гвен Вердон, Тэхни Уэлч
Описание:
Продолжение истории о чудодейственном коконе, который когда-то забыли на Земле инопланетяне. Те же бравые старички, которые хотели омолодиться с помощью инопланетной силы, вновь ввязываются в увлекательную, но небезопасную авантюру- ведь чужаки в коконе опять вернулись на Землю, чтобы доставить массу беспокойства ее обитателям.
Автор рипа: Stalker oK
Сэмпл
Качество видео: WEB-DLRip-AVC [FGT / WEB-DL / 1080p]
Формат видео: MKV
Видео кодек: AVC
Аудио кодек: AAC, AC3
Видео: 2123 Кбит/сек, 928*522 (16:9), в 23,976 (24000/1001) кадра/сек, AVC
Аудио #1: Russian, 112 Кбит/сек, 48,0 КГц / 24,0 КГц, 2 канала, AAC (HE-AAC / LC) (MVO)
Аудио #2: Russian, 448 Кбит/сек, 48,0 КГц, 6 каналов, AC-3 (DVO)
Аудио #3: Russian, 448 Кбит/сек, 48,0 КГц, 6 каналов, AC-3 (AVO, отдельно)
Аудио #4: English, 384 Кбит/сек, 48,0 КГц, 6 каналов, AC-3 (отдельно)

MediaInfo

Общее
Уникальный идентификатор : 209738856694873861185744726385550349495 (0x9DCA3C05A32D7333A19C98A661FAD4B7)
Полное имя : M:\Rips\Cocoon The Return\Cocoon.The.Return.1988.stalkerok.new-team\Cocoon.The.Return.1988.WEB-DLRip-AVC..2.18Gb.stalkerok.new-team.mkv
Формат : Matroska
Версия формата : Version 4 / Version 2
Размер файла : 2,18 Гбайт
Продолжительность : 1 ч. 56 м.
Общий поток : 2685 Кбит/сек
Название фильма : Cocoon: The Return (1988) (New-Team) (Rip by Stalker oK)
Дата кодирования : UTC 2016-02-05 11:41:27
Программа кодирования : mkvmerge v8.6.1 ('Flying') 64bit
Библиотека кодирования : libebml v1.3.3 + libmatroska v1.4.4
Видео
Идентификатор : 1
Формат : AVC
Формат/Информация : Advanced Video Codec
Профиль формата : [email protected]
Параметр CABAC формата : Да
Параметр ReFrames формата : 14 кадров
Идентификатор кодека : V_MPEG4/ISO/AVC
Продолжительность : 1 ч. 56 м.
Битрейт : 2123 Кбит/сек
Ширина : 928 пикселей
Высота : 522 пикселя
Соотношение сторон : 16:9
Режим частоты кадров : Постоянный
Частота кадров : 23,976 (24000/1001) кадра/сек
Цветовое пространство : YUV
Субдискретизация насыщенности : 4:2:0
Битовая глубина : 8 бит
Тип развёртки : Прогрессивная
Бит/(Пиксели*Кадры) : 0.183
Размер потока : 1,73 Гбайт (79%)
Заголовок : Cocoon: The Return (1988) (New-Team) (Rip by Stalker oK)
Библиотека кодирования : x264 core 148 r2638kMod 7599210
Настройки программы : cabac=1 / ref=14 / deblock=1:-3:-3 / analyse=0x3:0x133 / me=umh / subme=11 / psy=1 / fade_compensate=0.00 / psy_rd=1.00:0.10 / mixed_ref=1 / me_range=48 / chroma_me=1 / trellis=2 / 8x8dct=1 / cqm=0 / deadzone=21,11 / fast_pskip=0 / chroma_qp_offset=-3 / threads=12 / lookahead_threads=3 / sliced_threads=0 / nr=0 / decimate=0 / interlaced=0 / bluray_compat=0 / constrained_intra=0 / fgo=0 / bframes=15 / b_pyramid=2 / b_adapt=2 / b_bias=0 / direct=3 / weightb=1 / open_gop=0 / weightp=2 / keyint=240 / keyint_min=23 / scenecut=40 / intra_refresh=0 / rc_lookahead=60 / rc=2pass / mbtree=0 / bitrate=2123 / ratetol=1.0 / qcomp=0.70 / qpmin=0 / qpmax=69 / qpstep=4 / cplxblur=20.0 / qblur=0.5 / vbv_maxrate=50000 / vbv_bufsize=62500 / nal_hrd=none / filler=0 / ip_ratio=1.40 / pb_ratio=1.30 / aq=3:0.90
Default : Да
Forced : Нет
Аудио #1
Идентификатор : 2
Формат : AAC
Формат/Информация : Advanced Audio Codec
Профиль формата : HE-AAC / LC
Идентификатор кодека : A_AAC
Продолжительность : 1 ч. 56 м.
Битрейт : 112 Кбит/сек
Каналы : 2 канала
Расположение каналов : Front: L R
Частота : 48,0 КГц / 24,0 КГц
Частота кадров : 23,438 кадра/сек (1024 spf)
Метод сжатия : С потерями
Задержка видео : 31 мс.
Размер потока : 93,2 Мбайт (4%)
Заголовок : MVO (1 канал)
Язык : Russian
Default : Да
Forced : Нет
Аудио #2
Идентификатор : 3
Формат : AC-3
Формат/Информация : Audio Coding 3
Расширение режима : CM (complete main)
Параметр Endianness формата : Big
Идентификатор кодека : A_AC3
Продолжительность : 1 ч. 56 м.
Вид битрейта : Постоянный
Битрейт : 448 Кбит/сек
Каналы : 6 каналов
Расположение каналов : Front: L C R, Side: L R, LFE
Частота : 48,0 КГц
Частота кадров : 31,250 кадров/сек (1536 spf)
Метод сжатия : С потерями
Размер потока : 373 Мбайт (17%)
Заголовок : DVO
Язык : Russian
Default : Нет
Forced : Нет
Текст #1
Идентификатор : 4
Формат : UTF-8
Идентификатор кодека : S_TEXT/UTF8
Идентификатор кодека/Информация : UTF-8 Plain Text
Продолжительность : 1 ч. 50 м.
Битрейт : 68 бит/сек
Count of elements : 1108
Размер потока : 55,0 Кбайт (0%)
Язык : Russian
Default : Нет
Forced : Нет
Текст #2
Идентификатор : 5
Формат : UTF-8
Идентификатор кодека : S_TEXT/UTF8
Идентификатор кодека/Информация : UTF-8 Plain Text
Продолжительность : 1 ч. 50 м.
Битрейт : 48 бит/сек
Count of elements : 1170
Размер потока : 39,0 Кбайт (0%)
Язык : English
Default : Нет
Forced : Нет

Скриншоты

If your ratio falls below 0.3, you will not be able to download Torrents! More about the rating.

[erzsebet.pl].t51953.torrent
Torrent: Registered   [ 2017-12-11 02:36 ]

Download .torrent

Download

15 KB

Status: checked
Completed: 16 times
Size: 2.86 GB
terms.php

#1

11-Dec-2017 01:23

[Profile]  [PM] 
Display posts:    

You cannot post new topics in this forum
You cannot reply to topics in this forum
You cannot edit your posts in this forum
You cannot delete your posts in this forum
You cannot vote in polls in this forum
You cannot attach files in this forum
You can download files in this forum
User agreement
For copyright holders
Advertise on this site

Скачайте на халяву через торрент на трекере erzsebet.pl

!ATTENTION!
The site does not give electronic versions of products, and is engaged only in a collecting and cataloguing of the references sent and published at a forum by our readers. If you are the legal owner of any submitted material and do not wish that the reference to it was in our catalogue, contact us and we shall immediately remove her. Files for an exchange on tracker are given by users of a site, and the administration does not bear the responsibility for their maintenance. The request to not fill in the files protected by copyrights, and also files of the illegal maintenance!