Всадник с черепами / El charro de las Calaveras (Альфредо Салазар / Alfredo Salazar) [1965, Мексика, Вестерн, Ужасы, DVDRip] Sub Rus + Original Spa

DL-List and Torrent activity
Size:  897 MB   |    Registered:  2 years 10 months   |    Completed:  16 times
Seeders:  3  
 
   
 
 

Max Levien ®

Longevity:
2 years 10 months
Posts:
20374

[Quote] 

Всадник с черепами / El charro de las Calaveras
Страна: Мексика
Жанр: Вестерн, Ужасы
Год выпуска: 1965
Продолжительность: 01:19:00
Перевод: Субтитры explocine / cinemascope
Субтитры: русские
Оригинальная аудиодорожка: испанский
Режиссер: Альфредо Салазар / Alfredo Salazar
В ролях: Дагоберто Родригес, Давид Сильва, Алисия Каро, Паскаль Гарсия Пенья, Лаура Мартинес, Розарио Монтес и др.
Описание: Всадник с черепами, человек, сражающийся со злом во имя справедливости, сталкивается с чередой опасных противников в лице оборотня, вампира и всадника без головы, попутно помогая невинным жителям деревень избежать страшной участи.
Дичайший коктейль из хоррора и вестерна! Да, а вы думали, что в Мексике только Санто сражается со злом?
Доп. информация: В период с середины 50-х по конец 70-х в Мексике было снято около 12-15 подобных фильмов, где на выходе зритель получал дичайший взрывной коктейль из хоррора и вестерна. Данный фильм - один из наиболее известных представителей кино подобного рода.
При использовании раздачи обязательна ссылка на автора!
Сэмпл: http://multi-up.com/739517
Качество видео: DVDRip
Формат видео: AVI
Видео: 640х480, 23.976, 4:3 ratio, DivX-4, 1 472 Kbps, 0.200 bit/pixel
Аудио: [ESP] 48.0 KHz, MPEG Audio, 2 channels 56.6 MiB, 100 Kbps
Формат субтитров: softsub (SRT)
Доп. информация о субтитрах: ILSA_SS

MediaInfo

General
Complete name : El Charro de las Calaveras (1965).avi
Format : DivX
Format/Info : Hack of AVI
File size : 897 MiB
Duration : 1h 19mn
Overall bit rate : 1 587 Kbps
Video
ID : 0
Format : MPEG-4 Visual
Format profile : Advanced [email protected]
Format settings, BVOP : 1
Format settings, QPel : No
Format settings, GMC : No warppoints
Format settings, Matrix : Custom
Codec ID : DIVX
Codec ID/Info : Project Mayo
Codec ID/Hint : DivX 4
Duration : 1h 19mn
Bit rate : 1 472 Kbps
Width : 640 pixels
Height : 480 pixels
Display aspect ratio : 4:3
Frame rate : 23.976 fps
Color space : YUV
Chroma subsampling : 4:2:0
Bit depth : 8 bits
Scan type : Progressive
Compression mode : Lossy
Bits/(Pixel*Frame) : 0.200
Stream size : 832 MiB (93%)
Title : Video
Writing library : XviD 1.2.1 (UTC 2008-12-04)
Audio
ID : 1
Format : MPEG Audio
Format version : Version 1
Format profile : Layer 3
Mode : Joint stereo
Mode extension : MS Stereo
Codec ID : 55
Codec ID/Hint : MP3
Duration : 1h 19mn
Bit rate mode : Variable
Bit rate : 100 Kbps
Channel(s) : 2 channels
Sampling rate : 48.0 KHz
Compression mode : Lossy
Stream size : 56.6 MiB (6%)
Alignment : Aligned on interleaves
Interleave, duration : 24 ms (0.58 video frame)
Interleave, preload duration : 160 ms
Title : Audio
Writing library : LAME3.98.2
Text
ID : 2
Format : DivX Subtitle
Codec ID : DXSB
Codec ID/Info : Subtitle in AVI from DivX networks
Width : 720 pixels
Height : 576 pixels
Bit depth : 4 bits
Stream size : 1.14 MiB (0%)
Title : Subtitle - el;02

Пример субтитров

1
00:00:35,199 --> 00:00:43,959
ВСАДНИК С ЧЕРЕПАМИ
2
00:01:43,735 --> 00:01:52,085
РЕЖИССЕР:
АЛЬФРЕДО САЛАЗАР
3
00:03:48,277 --> 00:03:52,730
Ещё одна жертва оборотня!
4
00:03:56,448 --> 00:04:02,733
- Как этот парень, мадам?
- Тревожно, Клеофас; он только уснул.
5
00:04:03,830 --> 00:04:07,039
Я очень озабочена;
Ты думаешь, диагноз верен?
6
00:04:07,074 --> 00:04:12,935
Не знаю, мадам. Но точно одно -
здесь происходят дикие вещи.
7
00:04:12,970 --> 00:04:16,862
Я остался здесь из-за того,
что очень люблю Перико.
8
00:04:16,897 --> 00:04:21,370
И потому что я мачо!
В этом всё дело, ма...
9
00:04:24,445 --> 00:04:27,034
- Ма... ма... мадам...
- Что?
10
00:04:37,456 --> 00:04:41,252
- Добрый вечер. - Кто вы?
- Я известен как Всадник с черепами.
11
00:04:41,287 --> 00:04:43,612
Да, о нём многое говорили.
12
00:04:45,706 --> 00:04:50,470
Прости, что напугал вас, но я шёл
по следу, который привел меня сюда.
13
00:04:50,505 --> 00:04:55,840
- Что случилось? - Я нашел изуродованный
труп фермера. Его жестоко убили.
14
00:04:55,875 --> 00:04:57,691
Мама!
15
00:05:06,622 --> 00:05:10,354
С тех пор как мой сын видел монстра,
он серьезно заболел.
16
00:05:11,444 --> 00:05:13,201
Детское воображение...
17
00:05:13,236 --> 00:05:19,296
Возможно, но почему тогда рабочие
покинули это место?
18
00:05:19,331 --> 00:05:21,475
Когда начался этот
массовый отъезд, мадам?
19
00:05:21,510 --> 00:05:23,160
Более месяца назад.
20
00:05:24,564 --> 00:05:27,297
Знаете, люди в этих краях
очень суеверны.
21
00:05:28,158 --> 00:05:33,183
- Ну а Перико любит фантазировать.
- Это вполне по-детски, да.

Скриншот c названием фильма

If your ratio falls below 0.3, you will not be able to download Torrents! More about the rating.

[erzsebet.pl].t51963.torrent
Torrent: Registered   [ 2017-12-11 02:36 ]

Download .torrent

Download

18 KB

Status: checked
Completed: 16 times
Size: 897 MB
terms.php

#1

11-Dec-2017 01:23

[Profile]  [PM] 
Display posts:    

You cannot post new topics in this forum
You cannot reply to topics in this forum
You cannot edit your posts in this forum
You cannot delete your posts in this forum
You cannot vote in polls in this forum
You cannot attach files in this forum
You can download files in this forum
User agreement
For copyright holders
Advertise on this site

Скачайте на халяву через торрент на трекере erzsebet.pl

!ATTENTION!
The site does not give electronic versions of products, and is engaged only in a collecting and cataloguing of the references sent and published at a forum by our readers. If you are the legal owner of any submitted material and do not wish that the reference to it was in our catalogue, contact us and we shall immediately remove her. Files for an exchange on tracker are given by users of a site, and the administration does not bear the responsibility for their maintenance. The request to not fill in the files protected by copyrights, and also files of the illegal maintenance!