Сказочная группа / Команда мечты / Псих команда / The Dream Team (Ховард Зифф / Howard Zieff) [1989, США, комедия, DVDRip] AVO (А.Михалев) + AVO (А.Гаврилов)

DL-List and Torrent activity
Size:  1.37 GB   |    Registered:  2 years 10 months   |    Completed:  16 times
Seeders:  2  
 
   
 
 

Max Levien ®

Longevity:
2 years 10 months
Posts:
20374

[Quote] 

Сказочная группа / Команда мечты / Псих команда / The Dream Team
Страна: США
Жанр: комедия
Год выпуска: 1989
Продолжительность: 01:52:12
Перевод: Авторский (одноголосый закадровый) А.Михалев
Перевод 2: Авторский (одноголосый закадровый) А.Гаврилов
Субтитры: нет
Режиссер: Ховард Зифф / Howard Zieff
В ролях: Майкл Китон (Michael Keaton), Кристофер Ллойд (Christopher Lloyd), Питер Бойл (Peter Boyle), Стефен Ферст (Stephen Furst), Деннис Буцикарис (Dennis Boutsikaris), Лоррейн Бракко (Lorraine Bracco), Майло О`Ши (Milo O'Shea), Филип Боско (Philip Bosco), Джеймс Римар (James Remar), Джек Гилпин (Jack Gilpin)
Описание: Прогрессивный врач-психиатр, считая что это может помочь в лечении его подопечных, вывозит четырех психов в город на бейсбольный матч. Однако, волей обстоятельств, он попадает в крутую историю и исчезает, а психи остаются в городе одни, предоставленные сами себе. Билли (Китон), патологический лжец с болезненной склонностью к паникерству, попадает из одной истории в другую вместе со своими не совсем адекватными товарищами: Генри (Кристофер Ллойд), придурком-ловкачом, Джеком (Питер Бойл), бывшим высокопоставленным рекламистам, считающим себя Христом, и Альбертом (Стивен Ферст), кататоником, проходящим курс психоанализа…
В этом развеселом фарсе компания психов переживает массу невероятных приключений, пытаясь найти своего доктора и вызволить его из лап парочки продажных копов.
Доп. информация: За перевод Гаврилова огромное спасибо Sera
Исходник от sl_petrovich
http://erzsebet.org/forum/viewtopic.php?t=4596561
Релиз
Сэмпл: https://yadi.sk/i/nQH7IeFLiYHTP
Качество видео: DVDRip
Формат видео: AVI
Видео: 704x384 (1.83:1), 23.976 fps, XviD build 50 ~1353 kbps avg, 0.21 bit/pixel
Аудио: 48 kHz, AC3 Dolby Digital, 2/0 (L,R) ch, ~192 kbps А.Михалев
Аудио 2: 48 kHz, AC3 Dolby Digital, 2/0 (L,R) ch, ~192 kbps А.Гаврилов

MediaInfo

Команда мечты - The Dream Team [by Edich2].avi
Format : AVI
Format/Info : Audio Video Interleave
File size : 1.37 GiB
Duration : 1h 52mn
Overall bit rate : 1 752 Kbps
Movie name : Команда мечты - The Dream Team [by Edich2]
Director : by Edich2
Writing application : VirtualDubMod 1.5.10.2 (build 2540/release)
Comment : erzsebet.org
Video
ID : 0
Format : MPEG-4 Visual
Format profile : Advanced [email protected]
Format settings, BVOP : 1
Format settings, QPel : No
Format settings, GMC : No warppoints
Format settings, Matrix : Default (MPEG)
Codec ID : XVID
Codec ID/Hint : XviD
Duration : 1h 52mn
Bit rate : 1 354 Kbps
Width : 704 pixels
Height : 384 pixels
Display aspect ratio : 1.85:1
Frame rate : 23.976 fps
Color space : YUV
Chroma subsampling : 4:2:0
Bit depth : 8 bits
Scan type : Progressive
Compression mode : Lossy
Bits/(Pixel*Frame) : 0.209
Stream size : 1.06 GiB (77%)
Writing library : XviD 1.2.1 (UTC 2008-12-04)
Audio #1
ID : 1
Format : AC-3
Format/Info : Audio Coding 3
Format profile : Dolby Digital
Mode extension : CM (complete main)
Format settings, Endianness : Big
Codec ID : 2000
Duration : 1h 52mn
Bit rate mode : Constant
Bit rate : 192 Kbps
Channel(s) : 2 channels
Channel positions : Front: L R
Sampling rate : 48.0 KHz
Bit depth : 16 bits
Compression mode : Lossy
Stream size : 154 MiB (11%)
Alignment : Split accross interleaves
Interleave, duration : 42 ms (1.00 video frame)
Interleave, preload duration : 500 ms
Audio #2
ID : 2
Format : AC-3
Format/Info : Audio Coding 3
Mode extension : CM (complete main)
Format settings, Endianness : Big
Codec ID : 2000
Duration : 1h 52mn
Bit rate mode : Constant
Bit rate : 192 Kbps
Channel(s) : 2 channels
Channel positions : Front: L R
Sampling rate : 48.0 KHz
Bit depth : 16 bits
Compression mode : Lossy
Stream size : 154 MiB (11%)
Alignment : Split accross interleaves
Interleave, duration : 42 ms (1.00 video frame)
Interleave, preload duration : 500 ms

Скриншоты


If your ratio falls below 0.3, you will not be able to download Torrents! More about the rating.

[erzsebet.pl].t51964.torrent
Torrent: Registered   [ 2017-12-11 02:36 ]

Download .torrent

Download

14 KB

Status: checked
Completed: 16 times
Size: 1.37 GB
terms.php

#1

11-Dec-2017 01:23

[Profile]  [PM] 
Display posts:    

You cannot post new topics in this forum
You cannot reply to topics in this forum
You cannot edit your posts in this forum
You cannot delete your posts in this forum
You cannot vote in polls in this forum
You cannot attach files in this forum
You can download files in this forum
User agreement
For copyright holders
Advertise on this site

Скачайте на халяву через торрент на трекере erzsebet.pl

!ATTENTION!
The site does not give electronic versions of products, and is engaged only in a collecting and cataloguing of the references sent and published at a forum by our readers. If you are the legal owner of any submitted material and do not wish that the reference to it was in our catalogue, contact us and we shall immediately remove her. Files for an exchange on tracker are given by users of a site, and the administration does not bear the responsibility for their maintenance. The request to not fill in the files protected by copyrights, and also files of the illegal maintenance!