Джанго снова наносит удар / Джанго 2: Возвращение / Django Strikes Again / Django 2 - Il grande ritorno (Тед Арчер (Нелло Россати) / Ted Archer (Nello Rossati)) [1987, Италия, Вестерн, TVRip-AVC] DVO (Фильм-экспорт)

DL-List and Torrent activity
Size:  2.6 GB   |    Registered:  2 years 10 months   |    Completed:  16 times
Seeders:  3  
 
   
 
 

Max Levien ®

Longevity:
2 years 10 months
Posts:
20374

[Quote] 

Джанго снова наносит удар / Джанго 2: Возвращение / Django Strikes Again / Django 2 - Il grande ritorno
Страна: Италия
Жанр: Вестерн
Год выпуска: 1987
Продолжительность: 01:30:07
Перевод: Профессиональный (двухголосый закадровый) Фильм-экспорт
Субтитры: нет
Оригинальная аудиодорожка: нет
Режиссер: Тед Арчер (Нелло Россати) / Ted Archer (Nello Rossati)
В ролях: Франко Неро, Кристофер Коннелли, Личиния Лентини, Вильям Бергер, Дональд Плезенс...
Описание: Джанго после баталий первого фильма ушел с горя в монастырь. Но в один прекрасный день к нему приезжает больная женщина и сообщает, что у нее от Джанго есть дочь Марисоль. Вскоре она умирает, Джанго идет искать свою дочь и узнает, что злой работорговец сеет смерть и горе по всему краю. Джанго тоже попадает на рудники, узнав, что его дочь стала собственностью негодяя…
Доп. информация: Оцифровка VHS с записью 5 питерского канала из собственной коллекции.
Запись сделана в конце прошлого тысячелетия, где-то с 13 мая 1994 по 31 июля 1998, точнее уже и не вспомнить.
К сожалению в режиме LP, со всеми вытекающими...
Перевод киностудии Фильм-экспорт впервые на Рутрекере (а может и в Рунете - не проверял).
Джанго говорит голосом Владимира Конкина, впрочем как и все остальные персонажи мужского пола.
Сэмпл: http://sendfile.su/1279151
Качество видео: TVRip-AVC
Формат видео: MP4
Видео: AVC, 720х576, 5:4, 50,000 кадров/сек, 3935 Кбит/сек
Аудио: AAC, 48,0 КГц, 192 Кбит/сек, 2.0 (псевдостерео)

MediaInfo

Общее
Полное имя : K:\torrents\Django Strikes Again.mp4
Формат : MPEG-4
Профиль формата : Base Media
Идентификатор кодека : isom (isom)
Размер файла : 2,60 Гбайт
Продолжительность : 1 ч. 30 м.
Режим общего битрейта : Переменный
Общий поток : 4130 Кбит/сек
Дата кодирования : UTC 2016-10-30 11:40:13
Дата пометки : UTC 2016-10-30 11:40:13
Видео
Идентификатор : 2
Формат : AVC
Формат/Информация : Advanced Video Codec
Профиль формата : [email protected]
Параметр CABAC формата : Нет
Параметр ReFrames формата : 1 кадр
Параметр GOP формата : M=1, N=100
Идентификатор кодека : avc1
Идентификатор кодека/Информация : Advanced Video Coding
Продолжительность : 1 ч. 30 м.
Битрейт : 3935 Кбит/сек
Максимальный битрейт : 4544 Кбит/сек
Ширина : 720 пикселей
Высота : 576 пикселей
Соотношение сторон : 5:4
Режим частоты кадров : Постоянный
Частота кадров : 50,000 кадров/сек
Цветовое пространство : YUV
Субдискретизация насыщенности : 4:2:0
Битовая глубина : 8 бит
Тип развёртки : Прогрессивная
Бит/(Пиксели*Кадры) : 0.190
Размер потока : 2,48 Гбайт (95%)
Дата пометки : UTC 2016-10-30 11:42:57
Аудио
Идентификатор : 1
Формат : AAC
Формат/Информация : Advanced Audio Codec
Профиль формата : LC
Идентификатор кодека : 40
Продолжительность : 1 ч. 30 м.
Вид битрейта : Переменный
Битрейт : 192 Кбит/сек
Максимальный битрейт : 197 Кбит/сек
Каналы : 2 канала
Расположение каналов : Front: L R
Частота : 48,0 КГц
Частота кадров : 46,875 кадров/сек (1024 spf)
Метод сжатия : С потерями
Размер потока : 122 Мбайт (5%)
Default : Да
Alternate group : 1
Дата пометки : UTC 2016-10-30 11:42:57

Скриншот c названием фильма

If your ratio falls below 0.3, you will not be able to download Torrents! More about the rating.

[erzsebet.pl].t51965.torrent
Torrent: Registered   [ 2017-12-11 02:36 ]

Download .torrent

Download

13 KB

Status: checked
Completed: 16 times
Size: 2.6 GB
terms.php

#1

11-Dec-2017 01:23

[Profile]  [PM] 
Display posts:    

You cannot post new topics in this forum
You cannot reply to topics in this forum
You cannot edit your posts in this forum
You cannot delete your posts in this forum
You cannot vote in polls in this forum
You cannot attach files in this forum
You can download files in this forum
User agreement
For copyright holders
Advertise on this site

Скачайте на халяву через торрент на трекере erzsebet.pl

!ATTENTION!
The site does not give electronic versions of products, and is engaged only in a collecting and cataloguing of the references sent and published at a forum by our readers. If you are the legal owner of any submitted material and do not wish that the reference to it was in our catalogue, contact us and we shall immediately remove her. Files for an exchange on tracker are given by users of a site, and the administration does not bear the responsibility for their maintenance. The request to not fill in the files protected by copyrights, and also files of the illegal maintenance!