Джейк "Speed" / Быстрый Джейк / Jake Speed (Эндрю Лейн / Andrew Lane) [1986, США, Комедия, Боевик, Приключения, DVDRip] MVO

DL-List and Torrent activity
Size:  1.43 GB   |    Registered:  2 years 10 months   |    Completed:  16 times
Seeders:  2   Leechers:  1   Show peers in full details
 
   
 
 

Max Levien ®

Longevity:
2 years 10 months
Posts:
20374

[Quote] 

Джейк "Speed" / Быстрый Джейк / Jake Speed
Страна: США
Жанр: Комедия, Боевик, Приключения
Год выпуска: 1986
Продолжительность: 01:41:38
Перевод: Профессиональный (многоголосый закадровый)
Субтитры: нет
Режиссер: Эндрю Лейн / Andrew Lane
В ролях: Уэйн Кроуфорд, Деннис Кристофер, Карен Копинс, Джон Хёрт, Леон Эймс, Рой Лондон, Донна Пескоу, Барри Праймус, Монте Маркэм, Милли Перкинс
Описание: Юная девушка была похищена и продана в качестве белой рабыни во время своего Европейского путешествия. Ее сестра, Маргарет, чувствует себя виноватой в этом - ведь именно она убедила сестренку поехать в Европу. Следуя совету из анонимного письма, Маргарет идет в бар, где удивительным образом встречает двух неугомонных искателей приключений, отважных героев со страниц романов - Джейка и Деса. А Маргарет думала, что они существуют только в книжках! Отправившись с Джейком и Десом в спасательную экспедицию в африканский городок Бузовиль, она оказывается не просто в ловушке у работорговцев, но и в гуще настоящей революции...
Доп. информация: За исходник спасибо Simpun
Релиз
Сэмпл: https://yadi.sk/d/uaPAl6JvUMf64
Качество видео: DVDRip
Формат видео: AVI
Видео: 640x480 (1.33:1), 25 fps, XviD build 50 ~1849 kbps avg, 0.24 bit/pixel
Аудио: 48 kHz, AC3 Dolby Digital, 2/0 (L,R) ch, ~192 kbps

MediaInfo

Быстрый Джейк - Jake Speed [by Edich2].avi
Format : AVI
Format/Info : Audio Video Interleave
File size : 1.43 GiB
Duration : 1h 39mn
Overall bit rate : 2 051 Kbps
Movie name : Быстрый Джейк - Jake Speed [by Edich2]
Director : Rip by Edich2
Writing application : VirtualDubMod 1.5.10.3 | www.virtualdub-fr.org || (build 2550/release)
Comment : erzsebet.org
Video
ID : 0
Format : MPEG-4 Visual
Format profile : Advanced [email protected]
Format settings, BVOP : 2
Format settings, QPel : No
Format settings, GMC : No warppoints
Format settings, Matrix : Custom
Codec ID : XVID
Codec ID/Hint : XviD
Duration : 1h 39mn
Bit rate : 1 850 Kbps
Width : 640 pixels
Height : 480 pixels
Display aspect ratio : 4:3
Frame rate : 25.000 fps
Color space : YUV
Chroma subsampling : 4:2:0
Bit depth : 8 bits
Scan type : Progressive
Compression mode : Lossy
Bits/(Pixel*Frame) : 0.241
Stream size : 1.29 GiB (90%)
Writing library : XviD 1.2.1 (UTC 2008-12-04)
Audio
ID : 1
Format : AC-3
Format/Info : Audio Coding 3
Mode extension : CM (complete main)
Format settings, Endianness : Big
Codec ID : 2000
Duration : 1h 39mn
Bit rate mode : Constant
Bit rate : 192 Kbps
Channel(s) : 2 channels
Channel positions : Front: L R
Sampling rate : 48.0 KHz
Bit depth : 16 bits
Compression mode : Lossy
Stream size : 137 MiB (9%)
Alignment : Split accross interleaves
Interleave, duration : 40 ms (1.00 video frame)
Interleave, preload duration : 500 ms

Скриншоты


If your ratio falls below 0.3, you will not be able to download Torrents! More about the rating.

[erzsebet.pl].t51969.torrent
Torrent: Registered   [ 2017-12-11 02:36 ]

Download .torrent

Download

15 KB

Status: checked
Completed: 16 times
Size: 1.43 GB
terms.php

#1

11-Dec-2017 01:23

[Profile]  [PM] 
Display posts:    

You cannot post new topics in this forum
You cannot reply to topics in this forum
You cannot edit your posts in this forum
You cannot delete your posts in this forum
You cannot vote in polls in this forum
You cannot attach files in this forum
You can download files in this forum
User agreement
For copyright holders
Advertise on this site

Скачайте на халяву через торрент на трекере erzsebet.pl

!ATTENTION!
The site does not give electronic versions of products, and is engaged only in a collecting and cataloguing of the references sent and published at a forum by our readers. If you are the legal owner of any submitted material and do not wish that the reference to it was in our catalogue, contact us and we shall immediately remove her. Files for an exchange on tracker are given by users of a site, and the administration does not bear the responsibility for their maintenance. The request to not fill in the files protected by copyrights, and also files of the illegal maintenance!