Новичок / The Rookie (Клинт Иствуд / Clint Eastwood) [1990, США, боевик, триллер, драма, криминал, HDRip] DUB + AVO(А.Гаврилов) + original

DL-List and Torrent activity
Size:  2.57 GB   |    Registered:  2 years 10 months   |    Completed:  16 times
Seeders:  2  
 
   
 
 

Max Levien ®

Longevity:
2 years 10 months
Posts:
20374

[Quote] 

Новичок / The Rookie
Страна: США
Жанр: боевик, триллер, драма, криминал
Год выпуска: 1990
Продолжительность: 02:00:45
Перевод: Профессиональный (дублированный)(с VHS) + Авторский одноголосый (Андрей Гаврилов) + Оригинал
Субтитры: нет
Режиссёр на русском: Клинт Иствуд
Режиссёр на английском: Clint Eastwood
В ролях: Клинт Иствуд /Clint Eastwood/, Чарли Шин /Charlie Sheen/, Рауль Хулиа /Raul Julia/, Соня Брага /Sonia Braga/, Том Скерритт /Tom Skerritt/, Лэра Флинн Бойл /Lara Flynn Boyle/
Описание: Детективу из Лос-Анджелеса, занимающемуся угонами дорогих машин Нику Пуловски после гибели его напарника дают в помощники новичка — Дэвида Аккермана. Дэвид — вполне благополучный юноша из богатой семьи, окончивший университет, в детстве стал невольным виновником гибели брата. Он испытывает страх и угрызения совести.
Переплет, в который они с Ником попадают, преследуя главаря банды угонщиков Строма, заставляют его побороть страх. Рискуя жизнью, Дэвид в одиночку идет на выручку Нику, которого Стром взял в заложники. Он не только помогает Нику избежать гибели, но вдвоем они расправляются с бандой и ее главарем…
Качество видео: HDRip (The Rookie 1990 720p BluRay x264-CiNEFiLE)
Формат видео: AVI
Видео: XviD, 2003 Kbps, 720 х 304 pixels, 23.976 fps, Bits/Pixel * 0.382
Аудио 1: AC3, 192 Kbps, 2 channels, Front: L R, 48.0 KHz (Дубляж)
Аудио 2: AC3, 384 Kbps, 6 channels, Front: L C R, Side: L R, LFE, 48.0 KHz (Оригинал)
Аудио 3: AC3, 448 Kbps, 6 channels, Front: L C R, Side: L R, LFE, 48.0 KHz (А.Гаврилов) отдельным файлом

Сравнительные скриншоты

Сравнение http://comparescreenshots.slicx.com/comparison/65773 с этой раздачей http://erzsebet.org/forum/viewtopic.php?t=3007289

MediaInfo исходника

General
Complete name : E:\torrent\The.Rookie.1990.BDRip.720p.CiNEFiLE.mkv
Format : Matroska
File size : 7.10 GiB
Duration : 2h 0mn
Overall bit rate : 8 418 Kbps
Encoded date : UTC 2010-06-20 19:11:15
Writing application : mkvmerge v3.0.0 ('Hang up your Hang-Ups') built on Dec 12 2009 15:20:35
Writing library : libebml v0.7.9 + libmatroska v0.8.1
Video
ID : 1
Format : AVC
Format/Info : Advanced Video Codec
Format profile : [email protected]
Format settings, CABAC : Yes
Format settings, ReFrames : 5 frames
Muxing mode : Container [email protected]
Codec ID : V_MPEG4/ISO/AVC
Duration : 2h 0mn
Bit rate : 6 267 Kbps
Width : 1 280 pixels
Height : 536 pixels
Display aspect ratio : 2.35:1
Frame rate : 23.976 fps
Color space : YUV
Chroma subsampling : 4:2:0
Bit depth : 8 bits
Scan type : Progressive
Bits/(Pixel*Frame) : 0.381
Stream size : 5.15 GiB (72%)
Writing library : x264 core 97 r1627 d0d8751
Encoding settings : cabac=1 / ref=5 / deblock=1:0:0 / analyse=0x3:0x113 / me=umh / subme=7 / psy=1 / psy_rd=1.00:0.15 / mixed_ref=1 / me_range=16 / chroma_me=1 / trellis=1 / 8x8dct=1 / cqm=0 / deadzone=21,11 / fast_pskip=0 / chroma_qp_offset=-3 / threads=6 / sliced_threads=0 / nr=0 / decimate=1 / interlaced=0 / constrained_intra=0 / bframes=3 / b_pyramid=2 / b_adapt=1 / b_bias=0 / direct=1 / weightb=1 / weightp=2 / keyint=250 / keyint_min=25 / scenecut=40 / intra_refresh=0 / rc_lookahead=40 / rc=2pass / mbtree=1 / bitrate=6267 / ratetol=1.0 / qcomp=0.60 / qpmin=10 / qpmax=51 / qpstep=4 / cplxblur=20.0 / qblur=0.5 / ip_ratio=1.40 / aq=1:1.00
Language : English
Audio #1
ID : 2
Format : AC-3
Format/Info : Audio Coding 3
Mode extension : CM (complete main)
Codec ID : A_AC3
Duration : 2h 0mn
Bit rate mode : Constant
Bit rate : 192 Kbps
Channel(s) : 2 channels
Channel positions : Front: L R
Sampling rate : 48.0 KHz
Video delay : 489ms
Stream size : 166 MiB (2%)
Title : Дубляж
Language : Russian
Audio #2
ID : 3
Format : AC-3
Format/Info : Audio Coding 3
Mode extension : CM (complete main)
Codec ID : A_AC3
Duration : 2h 0mn
Bit rate mode : Constant
Bit rate : 448 Kbps
Channel(s) : 6 channels
Channel positions : Front: L C R, Side: L R, LFE
Sampling rate : 48.0 KHz
Video delay : 511ms
Stream size : 387 MiB (5%)
Title : А.Гаврилов
Language : Russian
Audio #3
ID : 4
Format : DTS
Format/Info : Digital Theater Systems
Codec ID : A_DTS
Duration : 2h 0mn
Bit rate mode : Constant
Bit rate : 1 510 Kbps
Channel(s) : 6 channels
Channel positions : Front: L C R, Side: L R, LFE
Sampling rate : 48.0 KHz
Bit depth : 24 bits
Stream size : 1.27 GiB (18%)
Title : Оригинал
Language : English
Text
ID : 5
Format : UTF-8
Codec ID : S_TEXT/UTF8
Codec ID/Info : UTF-8 Plain Text
Language : English
Menu
00:00:00.000 : en:00:00:00.000
00:02:28.357 : en:00:02:28.357
00:07:25.737 : en:00:07:25.737
00:11:15.133 : en:00:11:15.133
00:15:22.255 : en:00:15:22.255
00:17:39.016 : en:00:17:39.016
00:21:30.039 : en:00:21:30.039
00:24:12.326 : en:00:24:12.326
00:25:40.539 : en:00:25:40.539
00:29:44.950 : en:00:29:44.950
00:34:10.090 : en:00:34:10.090
00:38:12.540 : en:00:38:12.540
00:43:34.153 : en:00:43:34.153
00:47:15.875 : en:00:47:15.875
00:50:10.090 : en:00:50:10.090
00:54:22.426 : en:00:54:22.426
00:56:57.998 : en:00:56:57.998
00:59:31.151 : en:00:59:31.151
01:01:09.291 : en:01:01:09.291
01:06:31.446 : en:01:06:31.446
01:08:36.362 : en:01:08:36.362
01:12:25.299 : en:01:12:25.299
01:15:03.916 : en:01:15:03.916
01:20:47.843 : en:01:20:47.843
01:25:18.238 : en:01:25:18.238
01:27:58.273 : en:01:27:58.273
01:30:31.635 : en:01:30:31.635
01:33:29.771 : en:01:33:29.771
01:37:09.574 : en:01:37:09.574
01:43:00.883 : en:01:43:00.883
01:46:49.528 : en:01:46:49.528
01:49:07.708 : en:01:49:07.708
01:50:08.977 : en:01:50:08.977
01:54:04.421 : en:01:54:04.421
01:56:58.094 : en:01:56:58.094

MediaInfo рипа

General
Complete name : E:\Рабочая папка\The.Rookie.BDRip.avi
Format : AVI
Format/Info : Audio Video Interleave
Format profile : OpenDML
File size : 2.19 GiB
Duration : 2h 0mn
Overall bit rate : 2 597 Kbps
Writing application : VirtualDubModRus 1.5.10.2 (build 2542/release)
Writing library : VirtualDubMod build 2542/release
Video
ID : 0
Format : MPEG-4 Visual
Format profile : Advanced [email protected]
Format settings, BVOP : Yes
Format settings, QPel : No
Format settings, GMC : No warppoints
Format settings, Matrix : Default (MPEG)
Codec ID : XVID
Codec ID/Hint : XviD
Duration : 2h 0mn
Bit rate : 2 003 Kbps
Width : 720 pixels
Height : 304 pixels
Display aspect ratio : 2.35:1
Frame rate : 23.976 fps
Color space : YUV
Chroma subsampling : 4:2:0
Bit depth : 8 bits
Scan type : Progressive
Bits/(Pixel*Frame) : 0.382
Stream size : 1.69 GiB (77%)
Writing library : XviD 1.2.1 (UTC 2008-12-04)
Audio #1
ID : 1
Format : AC-3
Format/Info : Audio Coding 3
Mode extension : CM (complete main)
Codec ID : 2000
Duration : 2h 0mn
Bit rate mode : Constant
Bit rate : 192 Kbps
Channel(s) : 2 channels
Channel positions : Front: L R
Sampling rate : 48.0 KHz
Stream size : 166 MiB (7%)
Alignment : Split accross interleaves
Interleave, duration : 42 ms (1.00 video frame)
Interleave, preload duration : 500 ms
Audio #2
ID : 2
Format : AC-3
Format/Info : Audio Coding 3
Mode extension : CM (complete main)
Codec ID : 2000
Duration : 2h 0mn
Bit rate mode : Constant
Bit rate : 384 Kbps
Channel(s) : 6 channels
Channel positions : Front: L C R, Side: L R, LFE
Sampling rate : 48.0 KHz
Stream size : 332 MiB (15%)
Alignment : Split accross interleaves
Interleave, duration : 42 ms (1.00 video frame)
Interleave, preload duration : 500 ms

Скриншот c названием фильма

Скриншоты

If your ratio falls below 0.3, you will not be able to download Torrents! More about the rating.

[erzsebet.pl].t51971.torrent
Torrent: Registered   [ 2017-12-11 02:36 ]

Download .torrent

Download

13 KB

Status: checked
Completed: 16 times
Size: 2.57 GB
terms.php

#1

11-Dec-2017 01:23

[Profile]  [PM] 
Display posts:    

You cannot post new topics in this forum
You cannot reply to topics in this forum
You cannot edit your posts in this forum
You cannot delete your posts in this forum
You cannot vote in polls in this forum
You cannot attach files in this forum
You can download files in this forum
User agreement
For copyright holders
Advertise on this site

Скачайте на халяву через торрент на трекере erzsebet.pl

!ATTENTION!
The site does not give electronic versions of products, and is engaged only in a collecting and cataloguing of the references sent and published at a forum by our readers. If you are the legal owner of any submitted material and do not wish that the reference to it was in our catalogue, contact us and we shall immediately remove her. Files for an exchange on tracker are given by users of a site, and the administration does not bear the responsibility for their maintenance. The request to not fill in the files protected by copyrights, and also files of the illegal maintenance!