Сети зла / Dragnet (Том Манкевич / Tom Mankiewicz) [1987, США, Комедия, WEB-DLRip] MVO (ОРТ)

DL-List and Torrent activity
Size:  1.46 GB   |    Registered:  2 years 10 months   |    Completed:  16 times
Seeders:  3  
 
   
 
 

Max Levien ®

Longevity:
2 years 10 months
Posts:
20374

[Quote] 

Сети зла / Dragnet
Страна: США
Жанр: Комедия
Год выпуска: 1987
Продолжительность: 01:45:52
Перевод: Профессиональный (многоголосый закадровый)
Субтитры: нет
Режиссер: Том Манкевич / Tom Mankiewicz
В ролях: Дэн Эйкройд, Том Хэнкс, Кристофер Пламмер, Гарри Морган, Александра Пол, Джек О’Хэллоран и др.
Описание:
Джо Фрайди и его верный напарник Пеп Стрибек расследуют серию очень странных ограблений. В списке пропавшего — летучая мышь и львиная грива, невинная девушка и полицейский автомобиль, опасные химикаты и целый тираж журнала. Кому и зачем это понадобилось?
Доп. информация:
Рип с WEB-DL 720p от CtrlHD ([url=http:// СПАМ
За запись перевода ОРТ спасибо от Parabellumm.

Отчет MediaInfo

Цитата:General
Complete name : D:\Кино\Dragnet.1987.WEB-DLRip-MVO.avi
Format : AVI
Format/Info : Audio Video Interleave
File size : 1.46 GiB
Duration : 1h 45mn
Overall bit rate : 1 977 Kbps
Writing application : VirtualDubMod 1.5.10.2 (build 2540/release)
Writing library : VirtualDubMod build 2540/release
Video
ID : 0
Format : MPEG-4 Visual
Format profile : Advanced [email protected]
Format settings, BVOP : 2
Format settings, QPel : No
Format settings, GMC : No warppoints
Format settings, Matrix : Default (MPEG)
Muxing mode : Packed bitstream
Codec ID : XVID
Codec ID/Hint : XviD
Duration : 1h 45mn
Bit rate : 1 775 Kbps
Width : 720 pixels
Height : 384 pixels
Display aspect ratio : 1.85:1
Frame rate : 23.976 fps
Color space : YUV
Chroma subsampling : 4:2:0
Bit depth : 8 bits
Scan type : Progressive
Compression mode : Lossy
Bits/(Pixel*Frame) : 0.268
Stream size : 1.31 GiB (90%)
Writing library : XviD 64
Audio
ID : 1
Format : AC-3
Format/Info : Audio Coding 3
Mode extension : CM (complete main)
Format settings, Endianness : Big
Codec ID : 2000
Duration : 1h 45mn
Bit rate mode : Constant
Bit rate : 192 Kbps
Channel(s) : 2 channels
Channel positions : Front: L R
Sampling rate : 48.0 KHz
Bit depth : 16 bits
Compression mode : Lossy
Stream size : 145 MiB (10%)
Alignment : Split accross interleaves
Interleave, duration : 42 ms (1.00 video frame)
Interleave, preload duration : 500 ms
Качество: WEB-DLRip
Формат: AVI
Видео кодек: XviD
Аудио кодек: AC3
Видео: 720x384, 23,976 fps, XviD 64 ~1775 kbps, 0.268 bit/pixel
Аудио: 48 kHz, Rus, AC3 Dolby Digital, 2/0 (L,R) ch, ~192 kbps [ОРТ] IPTVRip

скриншоты


If your ratio falls below 0.3, you will not be able to download Torrents! More about the rating.

[erzsebet.pl].t51973.torrent
Torrent: Registered   [ 2017-12-11 02:36 ]

Download .torrent

Download

2 KB

Status: checked
Completed: 16 times
Size: 1.46 GB
terms.php

#1

11-Dec-2017 01:23

[Profile]  [PM] 
Display posts:    

You cannot post new topics in this forum
You cannot reply to topics in this forum
You cannot edit your posts in this forum
You cannot delete your posts in this forum
You cannot vote in polls in this forum
You cannot attach files in this forum
You can download files in this forum
User agreement
For copyright holders
Advertise on this site

Скачайте на халяву через торрент на трекере erzsebet.pl

!ATTENTION!
The site does not give electronic versions of products, and is engaged only in a collecting and cataloguing of the references sent and published at a forum by our readers. If you are the legal owner of any submitted material and do not wish that the reference to it was in our catalogue, contact us and we shall immediately remove her. Files for an exchange on tracker are given by users of a site, and the administration does not bear the responsibility for their maintenance. The request to not fill in the files protected by copyrights, and also files of the illegal maintenance!