Поезд-беглец / Runaway Train (Андрей Кончаловский / Andrei Konchalovsky) [1985, США, боевик, триллер, драма, приключения, BDRip] Dub (Варус Видео) + Original Eng

DL-List and Torrent activity
Size:  2.08 GB   |    Registered:  2 years 10 months   |    Completed:  16 times
Seeders:  2  
 
   
 
 

Max Levien ®

Longevity:
2 years 10 months
Posts:
20374

[Quote] 

Поезд-беглец / Runaway Train
Страна: США
Жанр: боевик, триллер, драма, приключения
Год выпуска: 1985
Продолжительность: 01:50:45
Перевод: Профессиональный (дублированный) Варус Видео
Субтитры: нет
Оригинальная аудиодорожка: английский
Режиссер: Андрей Кончаловский / Andrei Konchalovsky
В ролях: Джон Войт, Эрик Робертс, Ребекка Де Морнэй, Кайл Т. Хеффнер, Джон П. Райан, Т.К. Картер, Кеннет МакМиллан, Стейси Пикрен, Уолтер Уайатт, Эдвард Банкер, Дэнни Трехо
Описание: В снежную бурю, посреди Аляски, на сумасшедшей скорости без остановок несется поезд в неизвестном направлении.
Машинист мертв, и некому остановить стальную громадину. В поезде находятся двое сбежавших из колонии уголовников и молодая женщина, и каждый новый километр приближает их то ли к смерти, то ли к спасению...
Сэмпл: http://multi-up.com/906008
Исходник: BDRemux 1080p
Качество видео: BDRip
Формат видео: AVI
Видео: 704x384 (1.83:1), 23.976 fps, XviD build 65 ~2038 kbps avg, 0.31 bit/pixel
Аудио: 48 kHz, AC3 Dolby Digital, 2/0 (L,R) ch, ~192 kbps
Аудио 2: 48 kHz, AC3 Dolby Digital, 3/2 (L,C,R,l,r) + LFE ch, ~448 kbps

MediaInfo

Общее
Полное имя : C:\Users\к\Desktop\фильмы\Poezd.beglec.1985.BDRip.XviD.AC3.avi
Формат : AVI
Формат/Информация : Audio Video Interleave
Профиль формата : OpenDML
Размер файла : 2,08 Гбайт
Продолжительность : 1 ч. 50 м.
Общий поток : 2685 Кбит/сек
Название фильма : Поезд-беглец / Runaway Train (1985) BDRip
Режиссёр : yaroslaigor
Жанр : боевик, триллер, драма
Программа кодирования : VirtualDubMod 1.5.10.2 (build 2542/release)
Библиотека кодирования : VirtualDubMod build 2542/release
Примечание : 21.09.2013
Видео
Идентификатор : 0
Формат : MPEG-4 Visual
Профиль формата : Advanced [email protected]
Параметр BVOP формата : 1
Параметр QPel формата : Нет
Параметр GMC формата : Без точки перехода
Параметр матрицы формата : Выборочная
Идентификатор кодека : XVID
Идентификатор кодека/Подсказка : XviD
Продолжительность : 1 ч. 50 м.
Битрейт : 2027 Кбит/сек
Ширина : 704 пикселя
Высота : 384 пикселя
Соотношение сторон : 1,85:1
Частота кадров : 23,976 кадра/сек
Цветовое пространство : YUV
Субдискретизация насыщенности : 4:2:0
Битовая глубина : 8 бит
Тип развёртки : Прогрессивная
Метод сжатия : С потерями
Бит/(Пиксели*Кадры) : 0.313
Размер потока : 1,57 Гбайт (75%)
Библиотека кодирования : XviD 65
Аудио #1
Идентификатор : 1
Формат : AC-3
Формат/Информация : Audio Coding 3
Расширение режима : CM (complete main)
Параметр Endianness формата : Big
Идентификатор кодека : 2000
Продолжительность : 1 ч. 50 м.
Вид битрейта : Постоянный
Битрейт : 192 Кбит/сек
Каналы : 2 канала
Расположение каналов : Front: L R
Частота : 48,0 КГц
Битовая глубина : 16 бит
Метод сжатия : С потерями
Размер потока : 152 Мбайт (7%)
Выравнивание : Разделение по промежуткам
Продолжительность промежутка : 42 мс. (1,00 видеокадр)
Время предзагрузки промежутка : 500 мс.
Аудио #2
Идентификатор : 2
Формат : AC-3
Формат/Информация : Audio Coding 3
Расширение режима : CM (complete main)
Параметр Endianness формата : Big
Идентификатор кодека : 2000
Продолжительность : 1 ч. 50 м.
Вид битрейта : Постоянный
Битрейт : 448 Кбит/сек
Каналы : 6 каналов
Расположение каналов : Front: L C R, Side: L R, LFE
Частота : 48,0 КГц
Битовая глубина : 16 бит
Метод сжатия : С потерями
Размер потока : 355 Мбайт (17%)
Выравнивание : Разделение по промежуткам
Продолжительность промежутка : 42 мс. (1,00 видеокадр)
Время предзагрузки промежутка : 500 мс.

Скриншот c названием фильма

Скриншоты

If your ratio falls below 0.3, you will not be able to download Torrents! More about the rating.

[erzsebet.pl].t51978.torrent
Torrent: Registered   [ 2017-12-11 02:36 ]

Download .torrent

Download

11 KB

Status: checked
Completed: 16 times
Size: 2.08 GB
terms.php

#1

11-Dec-2017 01:23

[Profile]  [PM] 
Display posts:    

You cannot post new topics in this forum
You cannot reply to topics in this forum
You cannot edit your posts in this forum
You cannot delete your posts in this forum
You cannot vote in polls in this forum
You cannot attach files in this forum
You can download files in this forum
User agreement
For copyright holders
Advertise on this site

Скачайте на халяву через торрент на трекере erzsebet.pl

!ATTENTION!
The site does not give electronic versions of products, and is engaged only in a collecting and cataloguing of the references sent and published at a forum by our readers. If you are the legal owner of any submitted material and do not wish that the reference to it was in our catalogue, contact us and we shall immediately remove her. Files for an exchange on tracker are given by users of a site, and the administration does not bear the responsibility for their maintenance. The request to not fill in the files protected by copyrights, and also files of the illegal maintenance!