История Джейн Менсфилд / The Jayne Mansfield Story (Дик Лоури / Dick Lowry) [1980, США, Биографическая драма, DVDRip] AVO (Юрий Живов)

DL-List and Torrent activity
Size:  1.41 GB   |    Registered:  2 years 10 months   |    Completed:  16 times
Seeders:  2  
 
   
 
 

Max Levien ®

Longevity:
2 years 10 months
Posts:
20374

[Quote] 

История Джейн Менсфилд / The Jayne Mansfield Story
Страна: США
Жанр: Биографическая драма
Год выпуска: 1980
Продолжительность: 01:32:12
Перевод: Авторский (одноголосый закадровый) Юрий Живов
Субтитры: нет
Режиссер: Дик Лоури / Dick Lowry
В ролях: Лони Андерсон, Арнольд Шварценеггер /Arnold Schwarzenegger/, Рэймонд Бактеника, Кэтлин Ллойд /Kathleen Lloyd/, Дж. Д. Спрэдлин /G. D. Spradlin/, Дэйв Шелли
Описание: Картина посвящена жизни и карьере секссимвола 50-х годов, красавицы и блондинки актрисы Джейн Мэнсфилд (Андерсон), которая не останавливалась ни перед чем, лишь бы стать новой Мерлин Монро. К несчастью, она погибла в автокатастрофе в возрасте 36 лет в 1967 году. Арнольд Шварценеггер в роли Микки Харгитэя - имена всех остальных персонажей изменены. Сценарий Чарлза Денниса и Нэнси Гэйл по книге Марты Сэкстон "Джейн Мэнсфилд и американские пятидесятые годы". (Иванов М.)
Доп. информация: Дорожка с Ю. Живовым синхронизирована и наложена ale_x2008 при помощи Adobe Audition, Sony Vegas и VirtualDubMod.
За оцифрованную с VHS дорожку благодарим - d_rocker

Релиз
Сэмпл: https://yadi.sk/i/9dnypJC_mbt6k
Качество видео: DVDRip
Формат видео: AVI
Видео: XviD build 64, 640x480 (1.33:1), 23.976 fps, 1984 kbps avg, 0.27 bit/pixel
Аудио: AC3 Dolby Digital, 48000Hz, 2/0 (L,R) ch (mono), 192.00 kbps avg

MediaInfo

История Джейн Менсфилд - The Jayne Mansfield Story [by ale_x2008].avi
Format : AVI
Format/Info : Audio Video Interleave
File size : 1.41 GiB
Duration : 1h 32mn
Overall bit rate : 2 186 Kbps
Movie name : The Jayne Mansfield Story
Director : Dick Lowry
Genre : Drama
Writing application : VirtualDubMod 1.5.10.3 (build 2550/release)
Writing library : VirtualDubMod build 2550/release
Original source form/Name : Movie
Video
ID : 0
Format : MPEG-4 Visual
Format profile : Advanced [email protected]
Format settings, BVOP : 1
Format settings, QPel : No
Format settings, GMC : No warppoints
Format settings, Matrix : Custom
Codec ID : XVID
Codec ID/Hint : XviD
Duration : 1h 32mn
Bit rate : 1 985 Kbps
Width : 640 pixels
Height : 480 pixels
Display aspect ratio : 4:3
Frame rate : 23.976 fps
Color space : YUV
Chroma subsampling : 4:2:0
Bit depth : 8 bits
Scan type : Progressive
Compression mode : Lossy
Bits/(Pixel*Frame) : 0.269
Stream size : 1.28 GiB (91%)
Writing library : XviD 64
Audio
ID : 1
Format : AC-3
Format/Info : Audio Coding 3
Mode extension : CM (complete main)
Format settings, Endianness : Big
Codec ID : 2000
Duration : 1h 32mn
Bit rate mode : Constant
Bit rate : 192 Kbps
Channel(s) : 2 channels
Channel positions : Front: L R
Sampling rate : 48.0 KHz
Bit depth : 16 bits
Compression mode : Lossy
Stream size : 127 MiB (9%)
Alignment : Split accross interleaves
Interleave, duration : 42 ms (1.00 video frame)
Interleave, preload duration : 500 ms

Скриншоты


If your ratio falls below 0.3, you will not be able to download Torrents! More about the rating.

[erzsebet.pl].t51981.torrent
Torrent: Registered   [ 2017-12-11 02:36 ]

Download .torrent

Download

15 KB

Status: checked
Completed: 16 times
Size: 1.41 GB
terms.php

#1

11-Dec-2017 01:23

[Profile]  [PM] 
Display posts:    

You cannot post new topics in this forum
You cannot reply to topics in this forum
You cannot edit your posts in this forum
You cannot delete your posts in this forum
You cannot vote in polls in this forum
You cannot attach files in this forum
You can download files in this forum
User agreement
For copyright holders
Advertise on this site

Скачайте на халяву через торрент на трекере erzsebet.pl

!ATTENTION!
The site does not give electronic versions of products, and is engaged only in a collecting and cataloguing of the references sent and published at a forum by our readers. If you are the legal owner of any submitted material and do not wish that the reference to it was in our catalogue, contact us and we shall immediately remove her. Files for an exchange on tracker are given by users of a site, and the administration does not bear the responsibility for their maintenance. The request to not fill in the files protected by copyrights, and also files of the illegal maintenance!