Миллион лет до нашей эры / One Million Years B.C. (Дон Чеффи / Don Chaffey) [1966, Великобритания, приключения, DVDRip] [Расширенная версия / Unrated version] VO + original eng

DL-List and Torrent activity
Size:  1.59 GB   |    Registered:  2 years 10 months   |    Completed:  16 times
Seeders:  2  
 
   
 
 

Max Levien ®

Longevity:
2 years 10 months
Posts:
20374

[Quote] 

Миллион лет до нашей эры / One Million Years B.C.
Страна: Великобритания
Жанр: Приключения
Год выпуска: 1966
Продолжительность: 01:36:05
Перевод: Не требуется, но короткие реплики к фильму, требующие перевода по задумке режиссёра, озвучены закадровым голосом, автор которого Михаил Иванов
Субтитры: нет
Оригинальная аудиодорожка: английский
Режиссер: Дон Чеффи / Don Chaffey
В ролях: Рэкел Уэлч, Джон Ричардсон, Перси Херберт, Мартин Бесуик, Жан Владон, Роберт Браун
Описание: Действие фильма происходит в вымышленное доисторическое время. Пещерные люди сосуществуют в одном мире с динозаврами и фантастическими существами.
Главный герой фильма Тумак изгнан из своего родного племени. После многих дней скитаний по пустыне, едва живого, его спасают от смерти незнакомые ему воины. Новые соплеменники гораздо более цивилизованы и продвинулись дальше в эволюции: имеют более совершенный язык, едят с тарелок, проводят обряд похорон. Тумак сближается с девушкой Лоаной. Тумак пытается украсть копьё одного из воинов, но оказывается пойман и изгнан из племени вместе с Лоаной.
Тумак и Лоана вынуждены скитаться, постоянно спасаясь от полной опасности доисторической фауны…
Сэмпл: http://onemove.ru/28524/
Качество видео: DVDRip
Формат видео: AVI
Видео: XviD, 672x384, 25.000 fps, 1 942 Kbps
Аудио: 44.1 KHz, MPEG Layer 3, 2 ch, 192 Kbps (русский)
Аудио 2: 44.1 KHz, MPEG Layer 3, 2 ch, 224 Kbps (английский)

MediaInfo

One Million Years BC - CG.avi
General
Complete name : D:\Downloads\One Million Years BC - CG.avi
Format : AVI
Format/Info : Audio Video Interleave
Format profile : OpenDML
File size : 1.59 GiB
Duration : 1h 36mn
Overall bit rate : 2 367 Kbps
Writing application : AVI-Mux GUI 1.17.8.3, Feb 16 201019:42:50
Video #0
ID : 0
Format : MPEG-4 Visual
Format profile : Advanced [email protected]
Format settings, BVOP : Yes
Format settings, QPel : No
Format settings, GMC : No warppoints
Format settings, Matrix : Custom
Codec ID : XVID
Codec ID/Hint : XviD
Duration : 1h 36mn
Bit rate : 1 942 Kbps
Width : 672 pixels
Height : 384 pixels
Display aspect ratio : 16:9
Frame rate : 25.000 fps
Resolution : 8 bits
Colorimetry : 4:2:0
Scan type : Progressive
Bits/(Pixel*Frame) : 0.301
Stream size : 1.30 GiB (82%)
Writing library : XviD 1.2.0.dev47 (UTC 2006-11-01)
Audio #1
ID : 1
Format : MPEG Audio
Format version : Version 1
Format profile : Layer 3
Codec ID : 55
Codec ID/Hint : MP3
Duration : 1h 36mn
Bit rate mode : Constant
Bit rate : 192 Kbps
Channel(s) : 2 channels
Sampling rate : 44.1 KHz
Stream size : 132 MiB (8%)
Alignment : Aligned on interleaves
Interleave, duration : 379 ms (9.47 video frames)
Interleave, preload duration : 209 ms
Audio #2
ID : 2
Format : MPEG Audio
Format version : Version 1
Format profile : Layer 3
Format_Settings_Mode : Joint stereo
Codec ID : 55
Codec ID/Hint : MP3
Duration : 1h 36mn
Bit rate mode : Constant
Bit rate : 224 Kbps
Channel(s) : 2 channels
Sampling rate : 44.1 KHz
Stream size : 154 MiB (9%)
Alignment : Aligned on interleaves
Interleave, duration : 26 ms (0.65 video frame)
Interleave, preload duration : 182 ms
Title : One Million Years BC - CG en

Скриншот c названием фильма

Скриншоты




If your ratio falls below 0.3, you will not be able to download Torrents! More about the rating.

[erzsebet.pl].t51984.torrent
Torrent: Registered   [ 2017-12-11 02:36 ]

Download .torrent

Download

16 KB

Status: checked
Completed: 16 times
Size: 1.59 GB
terms.php

#1

11-Dec-2017 01:23

[Profile]  [PM] 
Display posts:    

You cannot post new topics in this forum
You cannot reply to topics in this forum
You cannot edit your posts in this forum
You cannot delete your posts in this forum
You cannot vote in polls in this forum
You cannot attach files in this forum
You can download files in this forum
User agreement
For copyright holders
Advertise on this site

Скачайте на халяву через торрент на трекере erzsebet.pl

!ATTENTION!
The site does not give electronic versions of products, and is engaged only in a collecting and cataloguing of the references sent and published at a forum by our readers. If you are the legal owner of any submitted material and do not wish that the reference to it was in our catalogue, contact us and we shall immediately remove her. Files for an exchange on tracker are given by users of a site, and the administration does not bear the responsibility for their maintenance. The request to not fill in the files protected by copyrights, and also files of the illegal maintenance!