Помутнение разума / Повреждение мозга / Mindwarp / Brain Slasher (Стив Барнетт / Steve Barnett) [1990, США, ужасы, фантастика, триллер, BDRip] MVO (ТВ3)

DL-List and Torrent activity
Size:  1.46 GB   |    Registered:  2 years 10 months   |    Completed:  16 times
Seeders:  4  
 
   
 
 

Max Levien ®

Longevity:
2 years 10 months
Posts:
20374

[Quote] 

Помутнение разума / Mindwarp
Страна: США
Жанр: ужасы, фантастика, триллер
Год выпуска: 1990
Продолжительность: 01:35:48
Перевод: Профессиональный (многоголосый закадровый) ТВ3
Субтитры: нет
Режиссер: Стив Барнетт / Steve Barnett
В ролях: Брюс Кэмпбелл, Энгус Скримм, Марта Мартин, Элизабет Кент, Мэри Бекер, Венди Сэндоу
Описание: Молодая девушка Джуди Эппл решает проявить характер. И поднимает свой личный маленький бунт, протестуя и против навязывания снов, которые диктует некий компьютерный источник ИНФИНИСИНТ, и против всего образа жизни, которая сводится к почти постоянному сну под контролем этого ИНФИНИСИНТА.
Немедленно следует наказание: Джуди Эппл из подземного бункера-убежища-укрытия попадает на открытую земную поверхность и мгновенно сталкивается с кошмарными опасностями в лице монстрообразных человекоподобных существ, из лап которых ее спасает одинокий охотник Стоувер, оказавшийся вполне приличным, симпатичным, абсолютно нормальным молодым человеком. От него и узнает Джуди обо всем, что когда-то случилось на земле, а также о том, кто живет под землей.
Доп. информация:
Качество видео: BDRip | Diablo/1080p BD-Remux
Формат видео: AVI
Видео: 720x384 (1.88:1), 23.976 fps, XviD build 73 ~1972 kbps avg, 0.30 bit/pixel
Аудио: 48 kHz, AC3 Dolby Digital, 2/0 (L,R) ch, ~192 kbps

MediaInfo

Общее
Полное имя : C:\Documents and Settings\Пользователь\Рабочий стол\Торрентс.ру\Mindwarp.1990.BDRip.MVO_by_LBS.avi
Формат : AVI
Формат/Информация : Audio Video Interleave
Размер файла : 1,46 Гбайт
Продолжительность : 1 ч. 35 м.
Общий поток : 2174 Кбит/сек
Режиссёр : Last Boy Scout
Программа кодирования : VirtualDubMod 1.5.10.3 | www.virtualdub-fr.org || (build 2550/release)
Правообладатель : erzsebet.org 21.10.2013
Примечание : BDRip MVO (ТВ3)
Видео
Идентификатор : 0
Формат : MPEG-4 Visual
Профиль формата : Advanced [email protected]
Параметр BVOP формата : 1
Параметр QPel формата : Нет
Параметр GMC формата : Без точки перехода
Параметр матрицы формата : Выборочная
Идентификатор кодека : XVID
Идентификатор кодека/Подсказка : XviD
Продолжительность : 1 ч. 35 м.
Битрейт : 1973 Кбит/сек
Ширина : 720 пикселей
Высота : 384 пикселя
Соотношение сторон : 1,85:1
Частота кадров : 23,976 кадра/сек
Цветовое пространство : YUV
Субдискретизация насыщенности : 4:2:0
Битовая глубина : 8 бит
Тип развёртки : Прогрессивная
Метод сжатия : С потерями
Бит/(Пиксели*Кадры) : 0.298
Размер потока : 1,32 Гбайт (91%)
Библиотека кодирования : XviD 73
Аудио
Идентификатор : 1
Формат : AC-3
Формат/Информация : Audio Coding 3
Расширение режима : CM (complete main)
Параметр Endianness формата : Big
Идентификатор кодека : 2000
Продолжительность : 1 ч. 35 м.
Вид битрейта : Постоянный
Битрейт : 192 Кбит/сек
Каналы : 2 канала
Расположение каналов : Front: L R
Частота : 48,0 КГц
Битовая глубина : 16 бит
Метод сжатия : С потерями
Размер потока : 132 Мбайт (9%)
Выравнивание : Разделение по промежуткам
Продолжительность промежутка : 42 мс. (1,00 видеокадр)
Время предзагрузки промежутка : 500 мс.

Скриншоты

If your ratio falls below 0.3, you will not be able to download Torrents! More about the rating.

[erzsebet.pl].t51986.torrent
Torrent: Registered   [ 2017-12-11 02:36 ]

Download .torrent

Download

15 KB

Status: checked
Completed: 16 times
Size: 1.46 GB
terms.php

#1

11-Dec-2017 01:23

[Profile]  [PM] 
Display posts:    

You cannot post new topics in this forum
You cannot reply to topics in this forum
You cannot edit your posts in this forum
You cannot delete your posts in this forum
You cannot vote in polls in this forum
You cannot attach files in this forum
You can download files in this forum
User agreement
For copyright holders
Advertise on this site

Скачайте на халяву через торрент на трекере erzsebet.pl

!ATTENTION!
The site does not give electronic versions of products, and is engaged only in a collecting and cataloguing of the references sent and published at a forum by our readers. If you are the legal owner of any submitted material and do not wish that the reference to it was in our catalogue, contact us and we shall immediately remove her. Files for an exchange on tracker are given by users of a site, and the administration does not bear the responsibility for their maintenance. The request to not fill in the files protected by copyrights, and also files of the illegal maintenance!