Демоны / Demons (Ламберто Бава / Lamberto Bava) [1985, Италия, ужасы, BDRip] AVO |Андрей Гаврилов|

DL-List and Torrent activity
Size:  745 MB   |    Registered:  2 years 10 months   |    Completed:  16 times
Seeders:  2  
 
   
 
 

Max Levien ®

Longevity:
2 years 10 months
Posts:
20374

[Quote] 

-Демоны / Demons
«И сбудется пророчество, и станут города вам гробницами...»
- Страна: Италия
Год выпуска: 1985
Производство: DACFILM Rome
Жанр: Ужасы-Продолжительность: 88 мин. / 01:28:36
Перевод: Авторский одноголосый, закадровый | Андрей Гаврилов
Оригинальная аудиодорожка: Отсутствует
Субтитры: Отсутствуют-Режиссер: Ламберто Бава / Lamberto Bava
В ролях: Урбано Барберини, Наташа Хови, Карл Синни, Фьоре Ардженто, Паола Коццо, Фабиола Толедо, Николетта Элми, Stelio Candelli, Николь Тессьер, Джеретта Джеретта и др.-Описание: Молодая девушка Шерил вместе с подругой получает в метро приглашение от странного человека в серебряной маске на премьерный показ нового фильма ужасов о демонах, нашествие которых якобы предсказал Нострадамус.
Сеанс должен состоятся в одном из только что отремонтированных берлинских кинотеатров под названием «Метрополь». В его фойе одна из посетительниц видит манекен в серебряной маске демона и шутки ради примеряет эту маску, чтобы сфотографироваться в ней. Поранившись обо что-то острое внутри маски, девушка с недовольным видом идет в зал. Происходящее на экране странно напоминает то, что в действительности произошло перед сеансом — та же маска и кто-то из героев поранился о нее… Как раз на моменте, когда молодой человек на экране читает отрывок из книги Нострадамуса, повествующий о том, что всякий, надевший маску, превратится в демона, поранившейся посетительнице становится плохо, и она идет в женскую комнату лишь для того… чтобы пророчество Нострадамуса сбылось…
Очень скоро и остальные зрители кинотеатра убедятся в том, что демоны бывают не только на экране, и Шерил вместе с ее друзьями по несчастью предстоит кровавая схватка с полчищами порождений ада…- -Качество: BDRip
Исходник: Demons.1.1985.1080p.Bluray.UK.AVC.Remux.HDCLUB
Формат: AVI-Видео: Xvid, 624x368 (1.69:6), 23.976 fps, 1 038 kbps, 0.188 bit/pixel
Аудио: 48 kHz, MP3, , 128 kbps-Рейтинг ВКИП: запрещено для детей
Рейтинг MPAA: лицам до 17 лет обязательно присутствие взрослого-

MI

Код:General
Complete name : Demons.1985.BDRip.Xvid.avi
Format : AVI
Format/Info : Audio Video Interleave
File size : 745 MiB
Duration : 1h 28mn
Overall bit rate : 1 175 Kbps
Writing application : VirtualDubMod 1.5.10.3 | www.virtualdub-fr.org || (build 2550/release)
Writing library : VirtualDubMod build 2550/release
Video
ID : 0
Format : MPEG-4 Visual
Format profile : Advanced [email protected]
Format settings, BVOP : 1
Format settings, QPel : No
Format settings, GMC : No warppoints
Format settings, Matrix : Custom
Codec ID : XVID
Codec ID/Hint : XviD
Duration : 1h 28mn
Bit rate : 1 038 Kbps
Width : 624 pixels
Height : 368 pixels
Display aspect ratio : 1.696
Frame rate : 23.976 fps
Color space : YUV
Chroma subsampling : 4:2:0
Bit depth : 8 bits
Scan type : Progressive
Compression mode : Lossy
Bits/(Pixel*Frame) : 0.188
Stream size : 658 MiB (88%)
Writing library : XviD 73
Audio
ID : 1
Format : MPEG Audio
Format version : Version 1
Format profile : Layer 3
Mode : Joint stereo
Mode extension : MS Stereo
Codec ID : 55
Codec ID/Hint : MP3
Duration : 1h 28mn
Bit rate mode : Constant
Bit rate : 128 Kbps
Channel(s) : 2 channels
Sampling rate : 48.0 KHz
Compression mode : Lossy
Stream size : 81.1 MiB (11%)
Alignment : Aligned on interleaves
Interleave, duration : 42 ms (1.00 video frame)
Interleave, preload duration : 504 ms
Writing library : LAME3.99r
Encoding settings : -m j -V 4 -q 0 -lowpass 17 -b 128

Скриншоты

-

Полноразмерная обложка

Цитата:
  • Продюсер фильма Дарио Ардженто является также соавтором сценария к фильму.
  • Дочь Ардженто Фиоре играет Ханну.
  • Микеле Соави — фанат творчества Ардженто и помощник режиссёра сыграл роль человека в маске.
  • Съёмки фильма происходили в Берлине. Завязка фильма начинается на станции берлинского метро Heidelberger Platz. Действие фильма происходит в реальном кинотеатре Metropol.
  • Во время просмотра фильма, как раз после сцены, где парень ранит себе лицо маской, камера показывает крупным планом лицо спутницы мафиози, и зритель видит царапину на правой щеке. Перед сценой этой царапины не было.
  • В холле кинотеатра висит плакат австралийской рок-группы AC/DC.
  • В фильме можно услышать музыку в исполнении групп Accept (Fast as a Shark), Motley Crue, Go West (We Close Our Eyes), и Billy Idol.
  • В середине главной музыкальной темы фильма использован мотив из «В пещере горного короля» Эдварда Грига.
  • Постер к фильму «Четыре мухи на сером бархате» (1971) висит в фойе театра (это название третьего фильма Дарио Ардженто).
  • Ламберто Бава сказал, что из всех фильмов, режиссурой которых он занимался, этот его любимый.

If your ratio falls below 0.3, you will not be able to download Torrents! More about the rating.

[erzsebet.pl].t51994.torrent
Torrent: Registered   [ 2017-12-11 02:36 ]

Download .torrent

Download

15 KB

Status: checked
Completed: 16 times
Size: 745 MB
terms.php

#1

11-Dec-2017 01:23

[Profile]  [PM] 
Display posts:    

You cannot post new topics in this forum
You cannot reply to topics in this forum
You cannot edit your posts in this forum
You cannot delete your posts in this forum
You cannot vote in polls in this forum
You cannot attach files in this forum
You can download files in this forum
User agreement
For copyright holders
Advertise on this site

Скачайте на халяву через торрент на трекере erzsebet.pl

!ATTENTION!
The site does not give electronic versions of products, and is engaged only in a collecting and cataloguing of the references sent and published at a forum by our readers. If you are the legal owner of any submitted material and do not wish that the reference to it was in our catalogue, contact us and we shall immediately remove her. Files for an exchange on tracker are given by users of a site, and the administration does not bear the responsibility for their maintenance. The request to not fill in the files protected by copyrights, and also files of the illegal maintenance!