Помешательство / Взбудораженные / Disturbed (Чарльз Уинклер / Charles Winkler) [1990, США, Психологический триллер, VHSRip] AVO (А. Гаврилов) + Original Eng

DL-List and Torrent activity
Size:  1.1 GB   |    Registered:  2 years 10 months   |    Completed:  16 times
Seeders:  4  
 
   
 
 

Max Levien ®

Longevity:
2 years 10 months
Posts:
20374

[Quote] 

Помешательство / Взбудораженные / Disturbed«The Doctor is in... but out of his mind!» Страна: США
Жанр: Психологический триллер
Год выпуска: 1990
Продолжительность: 01:33:58
Перевод: Авторский одноголосый закадровый - А. Гаврилов
Субтитры: нет
Оригинальная аудиодорожка: английская
Режиссер: Чарльз Уинклер / Charles Winkler
В ролях: Малкольм МакДауэлл, Джеффри Льюис, Присцилла Пойнтер, Памела Гидли, Ирвин Кийес, Клинт Ховард, Питер Мёрник, Кэрри Линн, Барбара Бэббин, Эмерсон Биксби.
Описание: Десять лет назад психиатр Деррик Рассел изнасиловал одну из своих пациенток. Когда та бросилась с крыши, он легко объяснил это тяжелой депрессией. Теперь Рассел снова увлечен одной из своих новых подопечных. Откуда ему знать, что эта симпатичная девушка - дочь его прежней жертвы и хочет отомстить ему за смерть матери.

Англоязычный VHSRip - из раздачи surfbat с
Оцифровка с VHS русской аудиодорожки - budulai-8

Качество видео: VHSRip
Формат видео: AVI
Видео: 672x480 (1.40:1), 29.970 fps, DivX Codec 5.2.1 alpha ~1281 kbps avg, 0.13 bit/pixel
Аудио 1: 48 kHz, AC3 Dolby Digital, 2/0 (L,R) ch, ~192 kbps - Rus
Аудио 2: 48 kHz, MPEG Layer 3, 2 ch, ~192.00 kbps avg - Eng

MediaInfo

General
Complete name : D:\Public\Disturbed.1990.Rus,Eng.avi
Format : AVI
Format/Info : Audio Video Interleave
File size : 1.10 GiB
Duration : 1h 33mn
Overall bit rate : 1 683 Kbps
Writing application : VirtualDubMod 1.5.10.2 (build 2542/release)
Writing library : VirtualDubMod build 2542/release
Video
ID : 0
Format : MPEG-4 Visual
Format settings, BVOP : 1
Format settings, QPel : No
Format settings, GMC : No warppoints
Format settings, Matrix : Default (H.263)
Codec ID : DX50
Codec ID/Hint : DivX 5
Duration : 1h 33mn
Bit rate : 1 282 Kbps
Width : 672 pixels
Height : 480 pixels
Display aspect ratio : 1.400
Frame rate : 29.970 fps
Color space : YUV
Chroma subsampling : 4:2:0
Bit depth : 8 bits
Scan type : Progressive
Compression mode : Lossy
Bits/(Pixel*Frame) : 0.133
Stream size : 862 MiB (76%)
Writing library : DivX 5.2.1 Alpha (UTC 2004-09-08)
Audio #1
ID : 1
Format : AC-3
Format/Info : Audio Coding 3
Mode extension : CM (complete main)
Codec ID : 2000
Duration : 1h 33mn
Bit rate mode : Constant
Bit rate : 192 Kbps
Channel(s) : 2 channels
Channel positions : Front: L R
Sampling rate : 48.0 KHz
Bit depth : 16 bits
Compression mode : Lossy
Stream size : 129 MiB (11%)
Alignment : Split accross interleaves
Interleave, duration : 33 ms (1.00 video frame)
Interleave, preload duration : 500 ms
Title : Rus
Audio #2
ID : 2
Format : MPEG Audio
Format version : Version 1
Format profile : Layer 3
Codec ID : 55
Codec ID/Hint : MP3
Duration : 1h 33mn
Bit rate mode : Constant
Bit rate : 192 Kbps
Channel(s) : 2 channels
Sampling rate : 48.0 KHz
Compression mode : Lossy
Stream size : 129 MiB (11%)
Alignment : Aligned on interleaves
Interleave, duration : 33 ms (1.00 video frame)
Interleave, preload duration : 504 ms
Title : Eng
Writing library : LAME3.98r
Encoding settings : -m s -V 4 -q 2 -lowpass 18.6 -b 192

Скриншот c названием фильма

Скриншоты

If your ratio falls below 0.3, you will not be able to download Torrents! More about the rating.

[erzsebet.pl].t51995.torrent
Torrent: Registered   [ 2017-12-11 02:36 ]

Download .torrent

Download

12 KB

Status: checked
Completed: 16 times
Size: 1.1 GB
terms.php

#1

11-Dec-2017 01:23

[Profile]  [PM] 
Display posts:    

You cannot post new topics in this forum
You cannot reply to topics in this forum
You cannot edit your posts in this forum
You cannot delete your posts in this forum
You cannot vote in polls in this forum
You cannot attach files in this forum
You can download files in this forum
User agreement
For copyright holders
Advertise on this site

Скачайте на халяву через торрент на трекере erzsebet.pl

!ATTENTION!
The site does not give electronic versions of products, and is engaged only in a collecting and cataloguing of the references sent and published at a forum by our readers. If you are the legal owner of any submitted material and do not wish that the reference to it was in our catalogue, contact us and we shall immediately remove her. Files for an exchange on tracker are given by users of a site, and the administration does not bear the responsibility for their maintenance. The request to not fill in the files protected by copyrights, and also files of the illegal maintenance!