Жизнь дерьмо / Life Stinks (Мэл Брукс / Mel Brooks) [1990, США, комедия, VHSRip-AVC] [Fullscreen] AVO (Алексей Михалёв)

DL-List and Torrent activity
Size:  2.07 GB   |    Registered:  2 years 10 months   |    Completed:  16 times
Seeders:  5  
 
   
 
 

Max Levien ®

Longevity:
2 years 10 months
Posts:
20374

[Quote] 

Жизнь дерьмо / Life Stinks / Fullscreen
Страна: США
Жанр: комедия
Год выпуска: 1990
Продолжительность: 01:34:58
Перевод: Авторский (одноголосый закадровый) Алексей Михалёв
Субтитры: нет
Оригинальная аудиодорожка: нет
Режиссер: Мэл Брукс / Mel Brooks
В ролях: Мэл Брукс, Лесли Энн Уоррен, Джеффри Тэмбор, Стюарт Пэнкин, Ховард Моррис, Руди Де Лука, Тедди Уилсон, Майкл Инсайн, Мэттью Фэйзон, Билли Барти, Брайан Томпсон, Рэймонд О’Коннор, Кармине Кариди, Роберт Риджли, Ларри Седар, Пол Бринегар...
Описание: Бедные мечтают о богатстве, а миллионеры, как явствует из многочисленных американских фильмов, не прочь окунуться в нищету, грязь и вонючее дерьмо. Мэл Брукс играет одного из таких богатеев, который заключает пари, что сможет целый месяц просуществовать среди отбросов общества, не имея в начале этого социального эксперимента ни цента в кармане.
Разумеется, герой фильма не только открывает для себя новые «горизонты» жизни, сталкиваясь с бесправием и беззаконием, но и познает красоту человеческого духа, беспредельную доброту и самоотверженность убогих и нищих. Здесь ему даже удается найти свою любовь!
Доп. информация:
Оцифровка пиратской VHS из собственной коллекции.
Fullscreen!
Сэмпл: http://sendfile.su/1332903
Качество видео: VHSRip-AVC
Формат видео: MP4
Видео: AVC, 720х576, 5:4, 25,000 кадров/сек, 3000 Кбит/сек
Аудио: AAC, 48,0 КГц, 192 Кбит/сек, 2 канала (псевдостерео)

MediaInfo

General
Complete name : K:\torrents\Life Stinks\Life Stinks.mp4
Format : MPEG-4
Format profile : Base Media
Codec ID : isom (isom)
File size : 2.07 GiB
Duration : 1 h 34 min
Overall bit rate mode : Variable
Overall bit rate : 3 114 kb/s
Encoded date : UTC 2017-05-07 06:21:56
Tagged date : UTC 2017-05-07 06:21:56
Video
ID : 2
Format : AVC
Format/Info : Advanced Video Codec
Format profile : [email protected]
Format settings, CABAC : No
Format settings, ReFrames : 1 frame
Format settings, GOP : M=1, N=50
Codec ID : avc1
Codec ID/Info : Advanced Video Coding
Duration : 1 h 34 min
Bit rate : 2 920 kb/s
Maximum bit rate : 3 600 kb/s
Width : 720 pixels
Height : 576 pixels
Display aspect ratio : 5:4
Frame rate mode : Constant
Frame rate : 25.000 FPS
Standard : PAL
Color space : YUV
Chroma subsampling : 4:2:0
Bit depth : 8 bits
Scan type : Progressive
Bits/(Pixel*Frame) : 0.282
Stream size : 1.94 GiB (94%)
Tagged date : UTC 2017-05-07 06:24:19
Audio
ID : 1
Format : AAC
Format/Info : Advanced Audio Codec
Format profile : LC
Codec ID : 40
Duration : 1 h 34 min
Bit rate mode : Variable
Bit rate : 192 kb/s
Maximum bit rate : 195 kb/s
Channel(s) : 2 channels
Channel positions : Front: L R
Sampling rate : 48.0 kHz
Frame rate : 46.875 FPS (1024 spf)
Compression mode : Lossy
Stream size : 129 MiB (6%)
Default : Yes
Alternate group : 1
Tagged date : UTC 2017-05-07 06:24:19

Скриншот c названием фильма

If your ratio falls below 0.3, you will not be able to download Torrents! More about the rating.

[erzsebet.pl].t52001.torrent
Torrent: Registered   [ 2017-12-11 02:36 ]

Download .torrent

Download

11 KB

Status: checked
Completed: 16 times
Size: 2.07 GB
terms.php

#1

11-Dec-2017 01:22

[Profile]  [PM] 
Display posts:    

You cannot post new topics in this forum
You cannot reply to topics in this forum
You cannot edit your posts in this forum
You cannot delete your posts in this forum
You cannot vote in polls in this forum
You cannot attach files in this forum
You can download files in this forum
User agreement
For copyright holders
Advertise on this site

Скачайте на халяву через торрент на трекере erzsebet.pl

!ATTENTION!
The site does not give electronic versions of products, and is engaged only in a collecting and cataloguing of the references sent and published at a forum by our readers. If you are the legal owner of any submitted material and do not wish that the reference to it was in our catalogue, contact us and we shall immediately remove her. Files for an exchange on tracker are given by users of a site, and the administration does not bear the responsibility for their maintenance. The request to not fill in the files protected by copyrights, and also files of the illegal maintenance!