Берсальеры идут / Arrivano i bersaglieri (Луиджи Маньи / Luigi Magni) [1980, Италия, Драма, комедия, DVDRip] MVO

DL-List and Torrent activity
Size:  1.46 GB   |    Registered:  2 years 10 months   |    Completed:  16 times
Seeders:  2  
 
   
 
 

Max Levien ®

Longevity:
2 years 10 months
Posts:
20374

[Quote] 

Берсальеры идут / Arrivano i bersaglieri- Страна: Италия
Жанр: Драма, комедия
Год выпуска: 1980
Продолжительность: 01:53:39-Перевод: Профессиональный (многоголосый закадровый)
Субтитры: нет-Режиссер: Луиджи Маньи / Luigi Magni-В ролях: Уго Тоньяцци, Джованна Ралли, Омбретта Колли, Джованнелла Грифео, Энрико Папа, Мариано Риджилло, Рикки Тоньяцци, Мауро Орфей, Даниэле Дублино, Карло Баньо-Описание: Рим, 1870 год. Война за объединение Италии. В Рим вошли берсельеры. В последнем бою Альфонсо убивает барсельера Урбано. Друг убитого Мартини ранит Альфонсо, и того приносят в дом князя Просперо. Семья Просперо придерживается разных политических взглядов. Сам Просперо — сторонник короля-папы, его жена Констанция и дочь Олимпия за новую Италию. В выздоравливающего Альфонсо влюбляется Констанция и соблазняет его, а сам Альфонсо влюбляется в Олимпию и собирается на ней жениться…-Сэмпл | IMDB | КиноПоиск-Качество видео: DVDRip [исх. DVD9 спасибо TestM]
Формат видео: AVI-Видео: 672x384 (1.75:1), 25 fps, XviD build 50, 1641 kbps avg, 0.25 bit/pixel
Аудио: Russian: 48 kHz, AC3 Dolby Digital, 2/0 (L,R) ch, 192.00 kbps avg
-Релиз группы: -

MediaInfo

General
Complete name : E:\Мои раздачи\Arrivano i bersaglieri_RG_All_Films.avi
Format : AVI
Format/Info : Audio Video Interleave
File size : 1.46 GiB
Duration : 1h 53mn
Overall bit rate : 1 843 Kbps
Writing application : VirtualDubMod 1.5.10.3 | www.virtualdub-fr.org || (build 2550/release)
Writing library : VirtualDubMod build 2550/release
Video
ID : 0
Format : MPEG-4 Visual
Format profile : Advanced [email protected]
Format settings, BVOP : Yes
Format settings, QPel : No
Format settings, GMC : No warppoints
Format settings, Matrix : Custom
Codec ID : XVID
Codec ID/Hint : XviD
Duration : 1h 53mn
Bit rate : 1 641 Kbps
Width : 672 pixels
Height : 384 pixels
Display aspect ratio : 16:9
Frame rate : 25.000 fps
Color space : YUV
Chroma subsampling : 4:2:0
Bit depth : 8 bits
Scan type : Progressive
Compression mode : Lossy
Bits/(Pixel*Frame) : 0.254
Stream size : 1.30 GiB (89%)
Writing library : XviD 1.2.1 (UTC 2008-12-04)
Audio
ID : 1
Format : AC-3
Format/Info : Audio Coding 3
Mode extension : CM (complete main)
Codec ID : 2000
Duration : 1h 53mn
Bit rate mode : Constant
Bit rate : 192 Kbps
Channel(s) : 2 channels
Channel positions : Front: L R
Sampling rate : 48.0 KHz
Bit depth : 16 bits
Compression mode : Lossy
Stream size : 156 MiB (10%)
Alignment : Split accross interleaves
Interleave, duration : 40 ms (1.00 video frame)
Interleave, preload duration : 500 ms

Скриншоты

If your ratio falls below 0.3, you will not be able to download Torrents! More about the rating.

[erzsebet.pl].t52008.torrent
Torrent: Registered   [ 2017-12-11 02:36 ]

Download .torrent

Download

15 KB

Status: checked
Completed: 16 times
Size: 1.46 GB
terms.php

#1

11-Dec-2017 01:22

[Profile]  [PM] 
Display posts:    

You cannot post new topics in this forum
You cannot reply to topics in this forum
You cannot edit your posts in this forum
You cannot delete your posts in this forum
You cannot vote in polls in this forum
You cannot attach files in this forum
You can download files in this forum
User agreement
For copyright holders
Advertise on this site

Скачайте на халяву через торрент на трекере erzsebet.pl

!ATTENTION!
The site does not give electronic versions of products, and is engaged only in a collecting and cataloguing of the references sent and published at a forum by our readers. If you are the legal owner of any submitted material and do not wish that the reference to it was in our catalogue, contact us and we shall immediately remove her. Files for an exchange on tracker are given by users of a site, and the administration does not bear the responsibility for their maintenance. The request to not fill in the files protected by copyrights, and also files of the illegal maintenance!