Ордер на смерть / Death Warrant (Деран Сарафян / Deran Sarafian) [1990, Канада, США, Боевик, триллер, драма, криминал, детектив, DVB] [Fullscreen] MVO

DL-List and Torrent activity
Size:  2.24 GB   |    Registered:  2 years 10 months   |    Completed:  16 times
Seeders:  3  
 
   
 
 

Max Levien ®

Longevity:
2 years 10 months
Posts:
20374

[Quote] 

Ордер на смерть / Death Warrant Страна: Канада, США
Жанр: Боевик, триллер, драма, криминал, детектив
Год выпуска: 1990
Продолжительность: 01:21:35
Перевод: Профессиональный (многоголосый закадровый)
Субтитры: нет
Оригинальная аудиодорожка: нет
Режиссер: Деран Сарафян / Deran Sarafian
В ролях: Жан-Клод Ван Дамм, Роберт Гийом, Синтия Гибб, Джордж Дикерсон, Арт ЛаФлёр, Пэтрик Килпэтрик, Джошуа Джон Миллер, Хэнк Стоун, Конрад Данн, Джек Бэннон
Описание: Офицер Луис Берк, «нечистый на руку» полицейский детектив, отправляется под видом осужденного в тюрьму «Харрисон», чтобы раскрыть серию убийств заключенных. В стенах тюрьмы он сталкивается с жестокостью сокамерников, с коррумпированными охранниками, со смертью и предательством всех мастей.
Когда Берк узнает шокирующую тайну тюрьмы, он должен совершить дерзкий побег — его последний шанс вырваться из лап сотен осужденных головорезов, возглавляемых его кровным врагом — «Заговорённым».-
MPAA: R - Лицам до 17 лет обязательно присутствие взрослого-Доп. информация: Fullscreen (4:3), в отличии от Widescreen (16:9), имеет большее наполнение кадра по высоте, но меньшее по ширине.-Релиз подготовил Parabellumm, специально для -Качество видео: DVB - Sample
Формат видео: TS
Видео: MPEG-4 AVC, 720x576 (4:3), 3484 Кбит/с, 25 кадров/сек, 0.336 бит/пиксель
Аудио: MPEG Layer 2, 48 КГц, 2 канал, 256 Кбит/с

MediaInfo

Общее
Идентификатор : 1 (0x1)
Полное имя : C:\Фильмы\Death.Warrant.1990.DVB.Fullscreen-erzsebet-PB.ts
Формат : MPEG-TS
Размер файла : 2,24 Гбайт
Продолжительность : 1 ч. 21 м.
Режим общего битрейта : Переменный
Общий поток : 3937 Кбит/сек
Видео
Идентификатор : 67 (0x43)
Идентификатор меню : 1 (0x1)
Формат : AVC
Формат/Информация : Advanced Video Codec
Профиль формата : [email protected]
Параметр CABAC формата : Да
Параметр ReFrames формата : 3 кадра
Параметр GOP формата : M=4, N=28
Идентификатор кодека : 27
Продолжительность : 1 ч. 21 м.
Битрейт : 3484 Кбит/сек
Ширина : 720 пикселей
Высота : 576 пикселей
Соотношение сторон : 4:3
Частота кадров : 25,000 кадров/сек
Стандарт вещания : Component
Цветовое пространство : YUV
Субдискретизация насыщенности : 4:2:0
Битовая глубина : 8 бит
Тип развёртки : Чересстрочная
Порядок развёртки : Верхнее поле первое
Бит/(Пиксели*Кадры) : 0.336
Размер потока : 1,99 Гбайт (88%)
Основные цвета : BT.601 PAL
Характеристики трансфера : BT.470 System B, BT.470 System G
Коэффициенты матрицы : BT.601
Аудио
Идентификатор : 68 (0x44)
Идентификатор меню : 1 (0x1)
Формат : MPEG Audio
Версия формата : Version 1
Профиль формата : Layer 2
Идентификатор кодека : 3
Продолжительность : 1 ч. 21 м.
Вид битрейта : Постоянный
Битрейт : 256 Кбит/сек
Каналы : 2 канала
Частота : 48,0 КГц
Метод сжатия : С потерями
Задержка видео : -40 мс.
Размер потока : 149 Мбайт (7%)
Язык : English

Скриншоты


If your ratio falls below 0.3, you will not be able to download Torrents! More about the rating.

[erzsebet.pl].t52011.torrent
Torrent: Registered   [ 2017-12-11 02:36 ]

Download .torrent

Download

12 KB

Status: checked
Completed: 16 times
Size: 2.24 GB
terms.php

#1

11-Dec-2017 01:22

[Profile]  [PM] 
Display posts:    

You cannot post new topics in this forum
You cannot reply to topics in this forum
You cannot edit your posts in this forum
You cannot delete your posts in this forum
You cannot vote in polls in this forum
You cannot attach files in this forum
You can download files in this forum
User agreement
For copyright holders
Advertise on this site

Скачайте на халяву через торрент на трекере erzsebet.pl

!ATTENTION!
The site does not give electronic versions of products, and is engaged only in a collecting and cataloguing of the references sent and published at a forum by our readers. If you are the legal owner of any submitted material and do not wish that the reference to it was in our catalogue, contact us and we shall immediately remove her. Files for an exchange on tracker are given by users of a site, and the administration does not bear the responsibility for their maintenance. The request to not fill in the files protected by copyrights, and also files of the illegal maintenance!