Бегущий человек / The Running Man (Пол Майкл Глейзер / Paul Michael Glaser) [1987, США, боевик, фантастика, HDRip] AVO Гаврилов

DL-List and Torrent activity
Size:  744 MB   |    Registered:  2 years 10 months   |    Completed:  16 times
Seeders:  2  
 
   
 
 

Max Levien ®

Longevity:
2 years 10 months
Posts:
20374

[Quote] 

Бегущий человек / The Running Man«Это всего лишь игра... со смертью» Страна: США
Жанр: боевик, фантастика
Год выпуска: 1987
Продолжительность: 01:40:00
Перевод: Авторский (одноголосый закадровый) [ Гаврилов ]
Субтитры: нет
Режиссер: Пол Майкл Глейзер / Paul Michael Glaser
В ролях: Арнольд Шварценеггер (Ben Richards), Мария Кончита Алонсо (Amber Mendez), Яфет Котто (William Laughlin), Джим Браун (Fireball), Джесси Вентура (Captain Freedom), Эрланд ван Лидт (Dynamo), Марвин Дж. МакИнтайр (Harold Weiss), Гас Ретвиш (Buzzsaw), профессор Тору Танака (Subzero), Мик Флитвуд (Mic), Dweezil Zappa (Stevie), Ричард Даусон (Damon Killian)
Описание: К 2017 году излюбленным развлечением для жителей Америки, превратившейся в полувоенное государство, стало садистское телешоу «Бегущий человек», участники которого - невинные жертвы - не имели ни единого шанса на выживание.
Среди них оказался полицейский Бэн Ричардс (Арнольд Шварценеггер), отказавшийся расстрелять безоружную толпу голодных людей. Теперь вместе с собратьями по несчастью ему предстоит принять участие в безумной гонке со смертью, сразиться с непобедимыми монстрами - Профессором Крио, Бензопилой, Шаровой Молнией и Динамо, и отомстить бесчеловечному хозяину шоу.
Размер: 1/6 DVD
Исходник: BDRip 1080p
Качество видео: HDRip
Формат видео: AVI
Видео: 656x368 (1.78:1), 23.976 fps, XviD build 62 ~895 kbps avg, 0.15 bit/pixel
Аудио: 48 kHz, MPEG Layer 3, 2 ch, ~128.00 kbps avg

MediaInfo

General
Complete name : C:\Documents and Settings\Администратор\Рабочий стол\The Running Man.HDRip.erzsebet.org_Drek.avi
Format : AVI
Format/Info : Audio Video Interleave
File size : 744 MiB
Duration : 1h 40mn
Overall bit rate : 1 033 Kbps
Writing application : VirtualDubModRus 1.5.10.2 (build 2542/release)
Writing library : VirtualDubMod build 2542/release
Video
ID : 0
Format : MPEG-4 Visual
Format profile : Advanced [email protected]
Format settings, BVOP : Yes
Format settings, QPel : No
Format settings, GMC : No warppoints
Format settings, Matrix : Custom
Codec ID : XVID
Codec ID/Hint : XviD
Duration : 1h 40mn
Bit rate : 896 Kbps
Width : 656 pixels
Height : 368 pixels
Display aspect ratio : 16:9
Frame rate : 23.976 fps
Resolution : 8 bits
Colorimetry : 4:2:0
Scan type : Progressive
Bits/(Pixel*Frame) : 0.155
Stream size : 645 MiB (87%)
Writing library : XviD 62
Audio
ID : 1
Format : MPEG Audio
Format version : Version 1
Format profile : Layer 3
Codec ID : 55
Codec ID/Hint : MP3
Duration : 1h 40mn
Bit rate mode : Constant
Bit rate : 128 Kbps
Channel(s) : 2 channels
Sampling rate : 48.0 KHz
Stream size : 92.2 MiB (12%)
Alignment : Aligned on interleaves
Interleave, duration : 42 ms (1.00 video frame)
Interleave, preload duration : 504 ms
Writing library : LAME3.98r
Encoding settings : -m s -V 4 -q 2 -lowpass 17 -b 128

Скриншот c названием фильма

Скриншоты

If your ratio falls below 0.3, you will not be able to download Torrents! More about the rating.

[erzsebet.pl].t52014.torrent
Torrent: Registered   [ 2017-12-11 02:36 ]

Download .torrent

Download

30 KB

Status: checked
Completed: 16 times
Size: 744 MB
terms.php

#1

11-Dec-2017 01:22

[Profile]  [PM] 
Display posts:    

You cannot post new topics in this forum
You cannot reply to topics in this forum
You cannot edit your posts in this forum
You cannot delete your posts in this forum
You cannot vote in polls in this forum
You cannot attach files in this forum
You can download files in this forum
User agreement
For copyright holders
Advertise on this site

Скачайте на халяву через торрент на трекере erzsebet.pl

!ATTENTION!
The site does not give electronic versions of products, and is engaged only in a collecting and cataloguing of the references sent and published at a forum by our readers. If you are the legal owner of any submitted material and do not wish that the reference to it was in our catalogue, contact us and we shall immediately remove her. Files for an exchange on tracker are given by users of a site, and the administration does not bear the responsibility for their maintenance. The request to not fill in the files protected by copyrights, and also files of the illegal maintenance!