Жестокий ринг / Ringul (Серджиу Николаеску / Sergiu Nicolaescu) [1984, Румыния, драма, VHSRip] [Советская прокатная копия] VO (к/с Горького)

DL-List and Torrent activity
Size:  2.88 GB   |    Registered:  2 years 10 months   |    Completed:  16 times
Seeders:  2  
 
   
 
 

Max Levien ®

Longevity:
2 years 10 months
Posts:
20374

[Quote] 

Жестокий ринг / Ringul / Советская прокатная копия
Страна: Румыния
Жанр: драма
Год выпуска: 1984
Продолжительность: 01:25:14
Перевод: Студийный (одноголосый закадровый) к/с Горького
Субтитры: нет
Режиссер: Серджиу Николаеску / Sergiu Nicolaescu
В ролях: Серджиу Николаеску, Марин Морару, Константин Брынзя, Михай Богица, Мариан Кулиняк, Махаил Воглер, Летиция Габриэлли, Юрие Дарие, Себастьян Папаяни
Описание: Герой фильма, шофер на международной автолинии, во время одного из рейсов попадает в Западный Берлин. В прошлом боксер-профессионал, он решает принять участие в рекламном матче. Его противником будет непобедимый Голем, в котором шофер узнает охранника фашистского концлагеря, где он был узником в годы войны…
Доп. информация: Текст читает Сергей Мартынов.
Сэмпл: http://multi-up.com/1101498
Качество видео: VHSRip
Формат видео: MPG
Видео: 720x576 (4:3) 25fps MPEG-2 4480Kbps
Аудио: 48KHz AC3 2ch 256Kbps

MediaInfo

General
Complete name : Е:\Фильмы\Жестокий ринг.mpg
Format : MPEG-PS
File size : 2.88 GiB
Duration : 1h 25mn
Overall bit rate mode : Variable
Overall bit rate : 4 832 Kbps
Video
ID : 224 (0xE0)
Format : MPEG Video
Format version : Version 2
Format profile : [email protected]
Format settings, BVOP : Yes
Format settings, Matrix : Custom
Format settings, GOP : Variable
Format settings, picture structure : Frame
Duration : 1h 25mn
Bit rate mode : Variable
Bit rate : 4 480 Kbps
Maximum bit rate : 9 400 Kbps
Width : 720 pixels
Height : 576 pixels
Display aspect ratio : 4:3
Frame rate : 25.000 fps
Standard : PAL
Color space : YUV
Chroma subsampling : 4:2:0
Bit depth : 8 bits
Scan type : Interlaced
Scan order : Top Field First
Compression mode : Lossy
Bits/(Pixel*Frame) : 0.432
Time code of first frame : 00:00:00:00
Time code source : Group of pictures header
Stream size : 2.67 GiB (93%)
Color primaries : BT.601 PAL
Transfer characteristics : BT.470 System B, BT.470 System G
Matrix coefficients : BT.601
Audio
ID : 189 (0xBD)-128 (0x80)
Format : AC-3
Format/Info : Audio Coding 3
Mode extension : CM (complete main)
Format settings, Endianness : Big
Muxing mode : DVD-Video
Duration : 1h 25mn
Bit rate mode : Constant
Bit rate : 256 Kbps
Channel(s) : 2 channels
Channel positions : Front: L R
Sampling rate : 48.0 KHz
Frame rate : 31.250 fps (1536 spf)
Compression mode : Lossy
Stream size : 156 MiB (5%)

Скриншот c названием фильма

Скриншоты

If your ratio falls below 0.3, you will not be able to download Torrents! More about the rating.

[erzsebet.pl].t52035.torrent
Torrent: Registered   [ 2017-12-11 02:36 ]

Download .torrent

Download

15 KB

Status: checked
Completed: 16 times
Size: 2.88 GB
terms.php

#1

11-Dec-2017 01:22

[Profile]  [PM] 
Display posts:    

You cannot post new topics in this forum
You cannot reply to topics in this forum
You cannot edit your posts in this forum
You cannot delete your posts in this forum
You cannot vote in polls in this forum
You cannot attach files in this forum
You can download files in this forum
User agreement
For copyright holders
Advertise on this site

Скачайте на халяву через торрент на трекере erzsebet.pl

!ATTENTION!
The site does not give electronic versions of products, and is engaged only in a collecting and cataloguing of the references sent and published at a forum by our readers. If you are the legal owner of any submitted material and do not wish that the reference to it was in our catalogue, contact us and we shall immediately remove her. Files for an exchange on tracker are given by users of a site, and the administration does not bear the responsibility for their maintenance. The request to not fill in the files protected by copyrights, and also files of the illegal maintenance!