История Верна Миллера / The Verne Miller Story (Род Хьюитт / Rod Hewitt) [1987, США, Драма, VHSRip] AVO (А. Михалев)

DL-List and Torrent activity
Size:  1.46 GB   |    Registered:  2 years 10 months   |    Completed:  16 times
Seeders:  2  
 
   
 
 

Max Levien ®

Longevity:
2 years 10 months
Posts:
20374

[Quote] 

-История Верна МиллераThe Verne Miller Story- -Страна: США
Жанр: Драма
Год выпуска: 1987
Продолжительность: 01:28:44-Перевод: Авторский (одноголосый закадровый) А. Михалев
Субтитры: нет
Оригинальная аудиодорожка: нет-Режиссер: Род Хьюитт / Rod Hewitt-В ролях: Скотт Гленн, Барбара Сток, Томас Дж. Уэйтс, Люсинда Дженни, Сонни Карл Дэвид, Дайан Салинджер, Эд О’Росс, Вито Руджинис, Эндрю Робинсон, Ксандер Беркли-Описание: 20-е годы. Верн Миллер, шериф из Южной Дакоты, отсидел два года в тюрьме за растрату. Выйдя на свободу, он стал одним из самых опасных преступников Америки. Ему было суждено осуществить одну из самых жестоких акций в истории американской преступности. Истинную историю этого человека заслонила легенда, которая восходит к 1925 году, когда он вышел из тюрьмы...". Да, Миллер (Гленн) становится гангстером-боевиком самого Аль Капоне. Работает он настолько усердно, что Капоне делает его первым "стволом" в Канзас-сити. Затем Миллер учиняет то, что в истории американской мафии известно как «Резня в Канзас-сити».-Качество видео: VHSRip
Формат видео: AVI-Видео: 624х480 (4:3), XviD build 73 ~ 2 154 kbps, 25.000 fps, 0.28 bit/pixel
Аудио: 48 kHz, AC3 Dolby Digital, 2/0 (L,R), ~192.00 kbps avg (А. Михалев)-Цитата:
Звуковая дорожка с переводом Алексея Михалева появилась благодаря budulai-8.
-

MediaInfo

General
Complete name : D:\Temp\Verne Miller.avi
Format : AVI
Format/Info : Audio Video Interleave
File size : 1.46 GiB
Duration : 1h 28mn
Overall bit rate : 2 356 Kbps
Writing application : VirtualDubMod 1.5.10.3 | www.virtualdub-fr.org || (build 2550/release)
Writing library : VirtualDubMod build 2550/release
Video
ID : 0
Format : MPEG-4 Visual
Format profile : Advanced [email protected]
Format settings, BVOP : 1
Format settings, QPel : No
Format settings, GMC : No warppoints
Format settings, Matrix : Custom
Codec ID : XVID
Codec ID/Hint : XviD
Duration : 1h 28mn
Bit rate : 2 154 Kbps
Width : 624 pixels
Height : 480 pixels
Display aspect ratio : 4:3
Frame rate : 25.000 fps
Color space : YUV
Chroma subsampling : 4:2:0
Bit depth : 8 bits
Scan type : Progressive
Compression mode : Lossy
Bits/(Pixel*Frame) : 0.288
Stream size : 1.33 GiB (91%)
Writing library : XviD 73
Audio
ID : 1
Format : AC-3
Format/Info : Audio Coding 3
Mode extension : CM (complete main)
Format settings, Endianness : Big
Codec ID : 2000
Duration : 1h 28mn
Bit rate mode : Constant
Bit rate : 192 Kbps
Channel count : 2 channels
Channel positions : Front: L R
Sampling rate : 48.0 KHz
Bit depth : 16 bits
Compression mode : Lossy
Stream size : 122 MiB (8%)
Alignment : Split accross interleaves
Interleave, duration : 40 ms (1.00 video frame)
Interleave, preload duration : 500 ms

Скриншот с названием фильма

Скриншоты

-

If your ratio falls below 0.3, you will not be able to download Torrents! More about the rating.

[erzsebet.pl].t52071.torrent
Torrent: Registered   [ 2017-12-11 02:36 ]

Download .torrent

Download

15 KB

Status: checked
Completed: 16 times
Size: 1.46 GB
terms.php

#1

11-Dec-2017 01:21

[Profile]  [PM] 
Display posts:    

You cannot post new topics in this forum
You cannot reply to topics in this forum
You cannot edit your posts in this forum
You cannot delete your posts in this forum
You cannot vote in polls in this forum
You cannot attach files in this forum
You can download files in this forum
User agreement
For copyright holders
Advertise on this site

Скачайте на халяву через торрент на трекере erzsebet.pl

!ATTENTION!
The site does not give electronic versions of products, and is engaged only in a collecting and cataloguing of the references sent and published at a forum by our readers. If you are the legal owner of any submitted material and do not wish that the reference to it was in our catalogue, contact us and we shall immediately remove her. Files for an exchange on tracker are given by users of a site, and the administration does not bear the responsibility for their maintenance. The request to not fill in the files protected by copyrights, and also files of the illegal maintenance!