Третья после солнца / Трета след слънцето (Георги Стоянов / Георгий Стоянов) [1972, Болгария, фантастика, TVRip] Sub Rus + Original Бол

DL-List and Torrent activity
Size:  1.23 GB   |    Registered:  2 years 10 months   |    Completed:  16 times
Seeders:  3  
 
   
 
 

Max Levien ®

Longevity:
2 years 10 months
Posts:
20374

[Quote] 

Третья после солнца / Трета след слънцето
Страна: Болгария
Жанр: фантастика
Год выпуска: 1972
Продолжительность: 01:54:39
Перевод: Субтитры Наталия Никогда
Субтитры: русские, болгарские
Оригинальная аудиодорожка: Болгарский
Режиссер: Георги Стоянов / Георгий Стоянов
В ролях: Ицхак Финци, Наум Шопов, Иван Миколайчук, Добринка Станкова, Пепа Николова, Тодор Колев, Георги Стоянов, Светослав Пеев, Светозар Неделчев, Кристиян Фоков, Цветана Манева, Илка Зафирова, Стоян Гъдев, Емилия Драгостинова, Евстати Стратев, Иван МановОписание: Фильм состоит из 3 эпизодов:«Эдем»
Инопланетяне с планеты Рея, потерпев аварию на своем космическом корабле на планете Земля, наблюдают разумных существ. Встречают приматов и берут одного из них на свой корабль. Но перед улетом превращают его в человека.
«Странник»
Писатель криминальных романов подбирает по дороге странного человека, когда едет навещать больного друга.
«Мой первый день»
Инопланетный путешественник по имени Лен прибывает на Землю, чтобы поделиться с людьми знаниями о древней цивилизации, познакомиться с жителями Земли, потому что их жизнь скучна и лишены смысла.релиз: Рип, тайминг, редакция_sasha20072007Болгарские субтитры Павлин Витанов
По роману Павла Вежинова "Сините пеперуди" (Синие бабочки)
Качество видео: TVRip
Формат видео: MKV

Видео: x264 1317 kbps 720x522 25 fps
Аудио: 192kbps 48khz stereo
Формат субтитров: softsub (SRT)

пример субтитров

1
00:00:00,180 --> 00:00:02,180
Студия игровых фильмов
Творческий коллектив Средец
2
00:00:26,470 --> 00:00:33,600
ТРЕТЬЯ ПОСЛЕ СОЛНЦА, 1972
3
00:00:34,470 --> 00:00:39,600
по книге Павла Вежинова
"Синие бабочки"
4
00:04:25,080 --> 00:04:28,260
Лен, не находишь ли, что здесь неплохо?
5
00:04:29,400 --> 00:04:31,330
Интересно, если мы не улетим отсюда,
6
00:04:31,950 --> 00:04:34,180
то же самое будешь говорить?
7
00:04:45,760 --> 00:04:48,320
Ну, во всяком случае,
здесь есть некоторые признаки жизни...
8
00:04:48,390 --> 00:04:50,320
Ох, мне не верится.
9
00:04:51,690 --> 00:04:53,850
Время – идти. Нас ждут.
10
00:04:55,420 --> 00:04:57,110
Хорошо, хорошо, уходим.
11
00:05:32,740 --> 00:05:34,360
Хет, по твоему, кто это?
12
00:05:34,460 --> 00:05:36,230
Думаю, что обезьяны.
13
00:05:38,410 --> 00:05:40,630
По моему, это человекоподобные обезьяны.
17
00:06:08,590 --> 00:06:10,710
И что самое хорошее – стоит на своих ногах.
18
00:06:11,200 --> 00:06:13,080
Какую осанку имеет.
19
00:06:13,540 --> 00:06:17,290
Уверен, что от нее может
произойти экземпляр по-красивее нас.
20
00:06:17,450 --> 00:06:19,030
Веришь, что знают про огонь?
21
00:06:19,240 --> 00:06:20,640
Нет.

MediaInfo

General
Unique ID : 238781033832723397541625874017948561978 (0xB3A38DE7FB755D94A044F541616C723A)
Complete name : C:\Трета след слънцето 1972.kosmoaelita.mkv
Format : Matroska
Format version : Version 4 / Version 2
File size : 1.23 GiB
Duration : 1h 54mn
Overall bit rate : 1 539 Kbps
Encoded date : UTC 2013-08-18 11:17:58
Writing application : mkvmerge v6.2.0 ('Promised Land') built on Apr 28 2013 12:22:01
Writing library : libebml v1.3.0 + libmatroska v1.4.0
Video
ID : 1
Format : AVC
Format/Info : Advanced Video Codec
Format profile : [email protected]
Format settings, CABAC : Yes
Format settings, ReFrames : 10 frames
Codec ID : V_MPEG4/ISO/AVC
Duration : 1h 54mn
Bit rate : 1 316 Kbps
Width : 720 pixels
Height : 522 pixels
Display aspect ratio : 1.379
Frame rate mode : Constant
Frame rate : 25.000 fps
Color space : YUV
Chroma subsampling : 4:2:0
Bit depth : 8 bits
Scan type : Progressive
Bits/(Pixel*Frame) : 0.140
Stream size : 1.05 GiB (86%)
Writing library : x264 core 130 r2273 b3065e6
Encoding settings : cabac=1 / ref=10 / deblock=1:0:-1 / analyse=0x3:0x133 / me=umh / subme=10 / psy=1 / psy_rd=0.95:0.15 / mixed_ref=1 / me_range=24 / chroma_me=1 / trellis=2 / 8x8dct=1 / cqm=0 / deadzone=21,11 / fast_pskip=1 / chroma_qp_offset=-3 / threads=6 / lookahead_threads=1 / sliced_threads=0 / nr=0 / decimate=1 / interlaced=0 / bluray_compat=0 / constrained_intra=0 / bframes=10 / b_pyramid=2 / b_adapt=2 / b_bias=0 / direct=1 / weightb=1 / open_gop=0 / weightp=2 / keyint=220 / keyint_min=22 / scenecut=40 / intra_refresh=0 / rc_lookahead=60 / rc=crf / mbtree=1 / crf=19.0 / qcomp=0.60 / qpmin=0 / qpmax=69 / qpstep=4 / ip_ratio=1.25 / aq=1:0.90
Default : Yes
Forced : No
Audio
ID : 2
Format : AC-3
Format/Info : Audio Coding 3
Format profile : Dolby Digital
Mode extension : CM (complete main)
Format settings, Endianness : Big
Codec ID : A_AC3
Duration : 1h 54mn
Bit rate mode : Constant
Bit rate : 192 Kbps
Channel(s) : 2 channels
Channel positions : Front: L R
Sampling rate : 48.0 KHz
Bit depth : 16 bits
Compression mode : Lossy
Stream size : 157 MiB (12%)
Default : Yes
Forced : No
Text #1
ID : 3
Format : UTF-8
Codec ID : S_TEXT/UTF8
Codec ID/Info : UTF-8 Plain Text
Default : Yes
Forced : No
Text #2
ID : 4
Format : UTF-8
Codec ID : S_TEXT/UTF8
Codec ID/Info : UTF-8 Plain Text
Default : No
Forced : No

Скриншоты

If your ratio falls below 0.3, you will not be able to download Torrents! More about the rating.

[erzsebet.pl].t52088.torrent
Torrent: Registered   [ 2017-12-11 02:36 ]

Download .torrent

Download

13 KB

Status: checked
Completed: 16 times
Size: 1.23 GB
terms.php

#1

11-Dec-2017 01:21

[Profile]  [PM] 
Display posts:    

You cannot post new topics in this forum
You cannot reply to topics in this forum
You cannot edit your posts in this forum
You cannot delete your posts in this forum
You cannot vote in polls in this forum
You cannot attach files in this forum
You can download files in this forum
User agreement
For copyright holders
Advertise on this site

Скачайте на халяву через торрент на трекере erzsebet.pl

!ATTENTION!
The site does not give electronic versions of products, and is engaged only in a collecting and cataloguing of the references sent and published at a forum by our readers. If you are the legal owner of any submitted material and do not wish that the reference to it was in our catalogue, contact us and we shall immediately remove her. Files for an exchange on tracker are given by users of a site, and the administration does not bear the responsibility for their maintenance. The request to not fill in the files protected by copyrights, and also files of the illegal maintenance!