Несмотря ни на что / Against All Odds (Тейлор Хэкфорд / Taylor Hackford) [1984, США, Триллер, мелодрама, драма, приключения, BDRip] VO

DL-List and Torrent activity
Size:  744 MB   |    Registered:  2 years 10 months   |    Completed:  16 times
Seeders:  2  
 
   
 
 

Max Levien ®

Longevity:
2 years 10 months
Posts:
20374

[Quote] 

Несмотря ни на что / Against All Odds
Страна: США
Жанр: Триллер, мелодрама, драма, приключения
Год выпуска: 1984
Продолжительность: 02:01:22
Перевод: Любительский (одноголосый закадровый)
Субтитры: нет
Режиссер: Тейлор Хэкфорд / Taylor Hackford
В ролях: Рэйчел Уорд, Джефф Бриджес, Джеймс Вудс, Алекс Каррас, Ричард Уидмарк, Сол Рубинек
Описание: Профессионального игрока футбольной команды Терри Брогана «вежливо» отправляют на покой, из-за полученной травмы. Случайная встреча с приятелем Джеком Уайзом, владельцем ночного клуба и по совместительству мелким криминальным авторитетом, дает Джеку шанс подзаработать. Надо всего лишь поехать в Мексику и разыскать бывшую подружку Джека, Джесси. Но с таким же предложением к Брогану обращается и мать девушки, одна из покровительниц футбольного клуба, за который он играл. Послав все к черту, Терри едет в Мексику, находит девушку и влюбляется в нее…
Доп. информация: Данный BDRip сделан из BDRemux 1080p, за который, спасибо "Diablo"!!!
За создание данного BDRip'а хотелось бы выразить огромную благодарность "TekoRon"!!!
Сэмпл: http://multi-up.com/496541
Качество видео: BDRip
Формат видео: AVI
Видео: 624x336 (1.86:1), 23.976 fps, XviD build 63 ~719 kbps avg, 0.14 bit/pixel
Аудио: Русский: 48 kHz, MPEG Layer 3, 2 ch, ~128.00 kbps avg

MediaInfo

General
Complete name : D:\Against.All.Odds.1984.bdrip.avi
Format : AVI
Format/Info : Audio Video Interleave
File size : 744 MiB
Duration : 2h 1mn
Overall bit rate : 857 Kbps
Writing application : VirtualDubMod 1.5.10.3 | www.virtualdub-fr.org || (build 2550/release)
Writing library : VirtualDubMod build 2550/release
Video
ID : 0
Format : MPEG-4 Visual
Format profile : Advanced [email protected]
Format settings, BVOP : Yes
Format settings, QPel : No
Format settings, GMC : No warppoints
Format settings, Matrix : Custom
Codec ID : XVID
Codec ID/Hint : XviD
Duration : 2h 1mn
Bit rate : 720 Kbps
Width : 624 pixels
Height : 336 pixels
Display aspect ratio : 1.857
Frame rate : 23.976 fps
Color space : YUV
Chroma subsampling : 4:2:0
Bit depth : 8 bits
Scan type : Progressive
Bits/(Pixel*Frame) : 0.143
Stream size : 625 MiB (84%)
Writing library : XviD 63
Audio
ID : 1
Format : MPEG Audio
Format version : Version 1
Format profile : Layer 3
Codec ID : 55
Codec ID/Hint : MP3
Duration : 2h 1mn
Bit rate mode : Constant
Bit rate : 128 Kbps
Channel(s) : 2 channels
Sampling rate : 48.0 KHz
Stream size : 111 MiB (15%)
Alignment : Aligned on interleaves
Interleave, duration : 42 ms (1.00 video frame)
Interleave, preload duration : 504 ms
Writing library : LAME3.98r
Encoding settings : -m s -V 4 -q 2 -lowpass 17 -b 128

AviInfo

File: Against.All.Odds.1984.bdrip.avi
Filesize: 744.29 Mb ( 780 445 696 bytes )
Play length: 02:01:22.282 (174600 frames)
Subtitles: Not Present
Video: 624x336 (1.86:1), 23.976 fps, XviD build 63 ~719 kbps avg, 0.14 bit/pixel
Audio: 48 kHz, MPEG Layer 3, 2 ch, ~128.00 kbps avg

Скриншот c названием фильма

Скриншоты

Торрент-файл перезалит 25.05.2011 по причине улучшения качества данного релиза (путем создания его из BDRemux)!!!

If your ratio falls below 0.3, you will not be able to download Torrents! More about the rating.

[erzsebet.pl].t52091.torrent
Torrent: Registered   [ 2017-12-11 02:36 ]

Download .torrent

Download

15 KB

Status: checked
Completed: 16 times
Size: 744 MB
terms.php

#1

11-Dec-2017 01:21

[Profile]  [PM] 
Display posts:    

You cannot post new topics in this forum
You cannot reply to topics in this forum
You cannot edit your posts in this forum
You cannot delete your posts in this forum
You cannot vote in polls in this forum
You cannot attach files in this forum
You can download files in this forum
User agreement
For copyright holders
Advertise on this site

Скачайте на халяву через торрент на трекере erzsebet.pl

!ATTENTION!
The site does not give electronic versions of products, and is engaged only in a collecting and cataloguing of the references sent and published at a forum by our readers. If you are the legal owner of any submitted material and do not wish that the reference to it was in our catalogue, contact us and we shall immediately remove her. Files for an exchange on tracker are given by users of a site, and the administration does not bear the responsibility for their maintenance. The request to not fill in the files protected by copyrights, and also files of the illegal maintenance!