Необычайная отвага / Необыкновенная отвага / Редкая отвага / Uncommon Valor (Тед Котчефф / Ted Kotcheff) [1983, США, военный, боевик, драма, DVDRip] 2х MVO + Original Eng

DL-List and Torrent activity
Size:  2.19 GB   |    Registered:  2 years 10 months   |    Completed:  16 times
Seeders:  2  
 
   
 
 

Max Levien ®

Longevity:
2 years 10 months
Posts:
20374

[Quote] 

Необычайная отвага / Необыкновенная отвага / Редкая отвага / Uncommon Valor
Страна: США
Студия: Milius-Feitshans, Paramount Pictures
Жанр: военный, боевик, драма
Год выпуска: 1983
Продолжительность: 01:40:32
Перевод 1: Профессиональный (многоголосый закадровый) Paramount channel
Перевод 2: Профессиональный (многоголосый закадровый)
Субтитры: нет
Оригинальная аудиодорожка: английский
Режиссер: Тед Котчефф / Ted Kotcheff
В ролях: Джин Хэкмен, Роберт Стэк, Фред Уорд, Рэб Браун, Рэндал «Текс» Кобб, Патрик Суэйзи, Гарольд Сильвестр, Тим Томерсон, Лау Нга Лаи, Кван Хи Лим, Kelly Junkerman, Todd Allen, Gail Strickland, Jane Kaczmarek, Gloria Stroock, Кен Фармер, Джереми Кемп, Тэд Хорино (Tad Horino), Майкл Дудикофф (Michael Dudikoff)...
Описание: Вот уже 10 лет, как отставной полковник американской армии Джейсон Роудс (Хэкмен) живет в кошмаре — он ищет своего сына, имя которого было внесено в список «пропавших без вести» во Вьетнаме. После безнадежных обращений к правительству, Роудс решает самостоятельно раскрыть тайну исчезновения сына. Он созывает пятерых бывших сослуживцев и убеждает их отправиться вместе с ним на поиски сына. Вместе с ними отправляется и молодой парень (Патрик Суэйзи), отец которого томится в плену уже долгие годы. После изнурительных недель обучения, они отправляются в Лаос. С этого момента и начинается самый сложный Вьетнамский конфликт.
II Сэмпл II IMDB II
Доп. информация:
За исходник спасибо dvdbox
Звук записан с т/к Paramount channel
Качество видео: DVDRip
Формат видео: AVI
Видео: Xvid 720x400 (16:9) 25.0fps Bit rate 2069Kbps b/p 0.287
Аудио 1: AC3 48.0 KHz 2ch. 192kbps rus mvo Paramount channel
Аудио 2: AC3 48.0 KHz 6ch. 384kbps rus mvo
Аудио 3: AC3 48.0 KHz 6ch. 448kbps eng

MediaInfo

Общее
Полное имя : E:\torrent\Uncommon Valor.1983_DVDRip.avi
Формат : AVI
Формат/Информация : Audio Video Interleave
Профиль формата : OpenDML
Размер файла : 2,19 Гбайт
Продолжительность : 1 ч. 40 м.
Общий поток : 3117 Кбит/сек
Программа кодирования : VirtualDubMod 1.5.10.3 (build 2550/release)
Библиотека кодирования : VirtualDubMod build 2550/release
Видео
Идентификатор : 0
Формат : MPEG-4 Visual
Профиль формата : Advanced [email protected]
Параметр BVOP формата : 2
Параметр QPel формата : Нет
Параметр GMC формата : Без точки перехода
Параметр матрицы формата : Default (MPEG)
Идентификатор кодека : XVID
Идентификатор кодека/Подсказка : XviD
Продолжительность : 1 ч. 40 м.
Битрейт : 2069 Кбит/сек
Ширина : 720 пикселей
Высота : 400 пикселей
Соотношение сторон : 16:9
Частота кадров : 25,000 кадров/сек
Цветовое пространство : YUV
Субдискретизация насыщенности : 4:2:0
Битовая глубина : 8 бит
Тип развёртки : Прогрессивная
Метод сжатия : С потерями
Бит/(Пиксели*Кадры) : 0.287
Размер потока : 1,45 Гбайт (66%)
Библиотека кодирования : XviD 1.2.1 (UTC 2008-12-04)
Аудио #1
Идентификатор : 1
Формат : AC-3
Формат/Информация : Audio Coding 3
Расширение режима : CM (complete main)
Параметр Endianness формата : Big
Идентификатор кодека : 2000
Продолжительность : 1 ч. 40 м.
Вид битрейта : Постоянный
Битрейт : 192 Кбит/сек
Каналы : 2 канала
Расположение каналов : Front: L R
Частота : 48,0 КГц
Битовая глубина : 16 бит
Метод сжатия : С потерями
Размер потока : 138 Мбайт (6%)
Выравнивание : Разделение по промежуткам
Продолжительность промежутка : 40 мс. (1,00 видеокадр)
Время предзагрузки промежутка : 500 мс.
Аудио #2
Идентификатор : 2
Формат : AC-3
Формат/Информация : Audio Coding 3
Расширение режима : CM (complete main)
Параметр Endianness формата : Big
Идентификатор кодека : 2000
Продолжительность : 1 ч. 40 м.
Вид битрейта : Постоянный
Битрейт : 384 Кбит/сек
Каналы : 6 каналов
Расположение каналов : Front: L C R, Side: L R, LFE
Частота : 48,0 КГц
Битовая глубина : 16 бит
Метод сжатия : С потерями
Размер потока : 276 Мбайт (12%)
Выравнивание : Разделение по промежуткам
Продолжительность промежутка : 40 мс. (1,00 видеокадр)
Время предзагрузки промежутка : 500 мс.
Аудио #3
Идентификатор : 3
Формат : AC-3
Формат/Информация : Audio Coding 3
Расширение режима : CM (complete main)
Параметр Endianness формата : Big
Идентификатор кодека : 2000
Продолжительность : 1 ч. 40 м.
Вид битрейта : Постоянный
Битрейт : 448 Кбит/сек
Каналы : 6 каналов
Расположение каналов : Front: L C R, Side: L R, LFE
Частота : 48,0 КГц
Битовая глубина : 16 бит
Метод сжатия : С потерями
Размер потока : 322 Мбайт (14%)
Выравнивание : Разделение по промежуткам
Продолжительность промежутка : 40 мс. (1,00 видеокадр)
Время предзагрузки промежутка : 500 мс.

Скриншот c названием фильма

Скриншоты


If your ratio falls below 0.3, you will not be able to download Torrents! More about the rating.

[erzsebet.pl].t52096.torrent
Torrent: Registered   [ 2017-12-11 02:36 ]

Download .torrent

Download

12 KB

Status: checked
Completed: 16 times
Size: 2.19 GB
terms.php

#1

11-Dec-2017 01:21

[Profile]  [PM] 
Display posts:    

You cannot post new topics in this forum
You cannot reply to topics in this forum
You cannot edit your posts in this forum
You cannot delete your posts in this forum
You cannot vote in polls in this forum
You cannot attach files in this forum
You can download files in this forum
User agreement
For copyright holders
Advertise on this site

Скачайте на халяву через торрент на трекере erzsebet.pl

!ATTENTION!
The site does not give electronic versions of products, and is engaged only in a collecting and cataloguing of the references sent and published at a forum by our readers. If you are the legal owner of any submitted material and do not wish that the reference to it was in our catalogue, contact us and we shall immediately remove her. Files for an exchange on tracker are given by users of a site, and the administration does not bear the responsibility for their maintenance. The request to not fill in the files protected by copyrights, and also files of the illegal maintenance!