Монахини в бегах / Nuns on the Run (Джонатан Линн / Jonathan Lynn) [1990, Великобритания, комедия, TVRip-AVC] [Fullscreen] DVO (студия "Кипарис")

DL-List and Torrent activity
Size:  2.58 GB   |    Registered:  2 years 10 months   |    Completed:  16 times
Seeders:  3  
 
   
 
 

Max Levien ®

Longevity:
2 years 10 months
Posts:
20374

[Quote] 

Монахини в бегах / Nuns on the Run / Fullscreen
Страна: Великобритания
Жанр: комедия
Год выпуска: 1990
Продолжительность: 01:28:03
Перевод: Профессиональный (двухголосый закадровый) студия "Кипарис"
Субтитры: нет
Оригинальная аудиодорожка: нет
Режиссер: Джонатан Линн / Jonathan Lynn
В ролях: Эрик Айдл, Робби Колтрейн, Камилла Кодури, Дженет Сьюзман, Дорис Хэа, Лила Кэй...
Описание: Львиная доля событий разворачивается в стенах женского монастыря. Сюда судьба забрасывает двух незадачливых преступников Брайена Хоупа и Чарли МакМануса, которые украли у своих «сотоварищей» пару чемоданов с деньгами и попытались найти местечко, где можно было бы пересидеть. В монастыре им пришлось не только переодеться, но и поменять имена…
Доп. информация:
Оцифровка VHS с записью эфира ОРТ, сделанной в период с 1 апреля по 30 сентября 1995 году.
Fullscreen.
Сэмпл: http://sendfile.su/1308510
Качество видео: TVRip-AVC
Формат видео: MP4
Видео: AVC, 720х578, 5:4, 50,000 кадров/сек, 4000 Кбит/сек
Аудио: AAC, 48,0 КГц, 192 Кбит/сек, 2 канала (псевдостерео)

MediaInfo

Общее
Полное имя : K:\torrents\...Nuns on the Run. full\Nuns on the Run.mp4
Формат : MPEG-4
Профиль формата : Base Media
Идентификатор кодека : isom (isom/iso2/avc1/mp41)
Размер файла : 2,58 Гбайт
Продолжительность : 1 ч. 28 м.
Общий поток : 4198 Кбит/сек
Программа кодирования : Lavf57.25.100
Видео
Идентификатор : 1
Формат : AVC
Формат/Информация : Advanced Video Codec
Профиль формата : [email protected]
Параметр CABAC формата : Нет
Параметр ReFrames формата : 1 кадр
Параметр GOP формата : M=1, N=100
Идентификатор кодека : avc1
Идентификатор кодека/Информация : Advanced Video Coding
Продолжительность : 1 ч. 28 м.
Битрейт : 4000 Кбит/сек
Ширина : 720 пикселей
Высота : 576 пикселей
Соотношение сторон : 5:4
Режим частоты кадров : Постоянный
Частота кадров : 50,000 кадров/сек
Цветовое пространство : YUV
Субдискретизация насыщенности : 4:2:0
Битовая глубина : 8 бит
Тип развёртки : Прогрессивная
Бит/(Пиксели*Кадры) : 0.193
Размер потока : 2,46 Гбайт (95%)
Аудио
Идентификатор : 2
Формат : AAC
Формат/Информация : Advanced Audio Codec
Профиль формата : LTP
Идентификатор кодека : 40
Продолжительность : 1 ч. 28 м.
Вид битрейта : Постоянный
Битрейт : 192 Кбит/сек
Каналы : 2 канала
Channel(s)_Original : 3 канала
Расположение каналов : Front: L C R
Частота : 64,0 КГц
Частота кадров : 62,500 кадра/сек (1024 spf)
Метод сжатия : С потерями
Размер потока : 119 Мбайт (5%)
Default : Да
Alternate group : 1

Скриншот c названием фильма

If your ratio falls below 0.3, you will not be able to download Torrents! More about the rating.

[erzsebet.pl].t52097.torrent
Torrent: Registered   [ 2017-12-11 02:36 ]

Download .torrent

Download

13 KB

Status: checked
Completed: 16 times
Size: 2.58 GB
terms.php

#1

11-Dec-2017 01:21

[Profile]  [PM] 
Display posts:    

You cannot post new topics in this forum
You cannot reply to topics in this forum
You cannot edit your posts in this forum
You cannot delete your posts in this forum
You cannot vote in polls in this forum
You cannot attach files in this forum
You can download files in this forum
User agreement
For copyright holders
Advertise on this site

Скачайте на халяву через торрент на трекере erzsebet.pl

!ATTENTION!
The site does not give electronic versions of products, and is engaged only in a collecting and cataloguing of the references sent and published at a forum by our readers. If you are the legal owner of any submitted material and do not wish that the reference to it was in our catalogue, contact us and we shall immediately remove her. Files for an exchange on tracker are given by users of a site, and the administration does not bear the responsibility for their maintenance. The request to not fill in the files protected by copyrights, and also files of the illegal maintenance!