Ешь богатых / Сожри богатея / Eat the Rich / Motorhead / Lemmy (Питер Ричардсон / Peter Richardson) [1987, Великобритания, комедия, DVDRip] [16X9] AVO (Дольский) + Original Eng

DL-List and Torrent activity
Size:  1.45 GB   |    Registered:  2 years 10 months   |    Completed:  16 times
Seeders:  2  
 
   
 
 

Max Levien ®

Longevity:
2 years 10 months
Posts:
20374

[Quote] 

Ешь богатых / Сожри богатея / Eat the Rich
[16X9] американское издание
Страна: Великобритания
Жанр: комедия
Год выпуска: 1987
Продолжительность: 01:29:00
Перевод: Авторский (одноголосый закадровый) Андрея Дольского
Субтитры: нет
Оригинальная аудиодорожка: английский
Режиссер: Питер Ричардсон / Peter Richardson
В ролях: Lanah Pellay... Alex
Деррен Несбитт / Derren Nesbitt... Manager
Шэйн МакГовэн / Shane MacGowan... Terrorist
Кевин Аллен / Kevin Allen... Waiter 1
Рональд Аллен / Ronald Allen... Cmdr. Fortune
Дэйв Бирд / Dave Beard... Gen. Karpov
Rowena Bentley... Indecisive Girlfriend
Энджи Боуи / Angie Bowie... Henry's Wife
Саймон Бринт / Simon Brint... Dickie
Rene Bruchet... Janet
Лес Бабб / Les Bubb... Waiter
Кэти Бёрк / Kathy Burke... Kathy
Кэтрин Картлидж / Katrin Cartlidge... Katrin
Robert Carwithen... Robert
Шон Чэпман / Sean Chapman... Mark
Робби Колтрейн / Robbie Coltrane... Jeremy
Кэтрин Харрисон / Cathryn Harrison... Joanna
Джулс Холланд / Jools Holland... Sun Reporter
Лемми / Lemmy... Spider
Дэбби Линден / Debbie Linden... Layla
Пол МакКартни / Paul McCartney... Banquet Guest
Миранда Ричардсон / Miranda Richardson... DHSS Blonde
Билл Уаймен / Bill Wyman... Toilet Victim
Описание: you are what you eat >> скажи мне, что ты ешь, и я скажу, кто ты
официант элитного ресторана, измученный издевательством управляющего и клиентами и, в результате, уволенный из него, бездомный и голодный снова терпит надменное отношение со стороны друзей и работников социальной службы, с "братьями по оружию" они наказывают мерзавцев и открывают свой ресторан с новым меню
- перевод случайно нашел на страничке моторноголовых в "вконтакте", синхронизировал и смикшировал с английским
у студии ОРБИТА был с переводом /Сожри богатея/- у меня давным давно погибла VHS -откликнетесь у кого сохранилась!!!!!!

>> [4X3] немецкое издание , картинка обрезана с боков
Качество видео: DVDRip >>Сэмпл
Формат видео: AVI
Видео: 704x384 (1.83:1), 23.976 fps, XviD build 50 ~1874 kbps avg, 0.29 bit/pixel - исходный диск из amazonа
Аудио 1: 48 kHz, AC3 Dolby Digital, 2/0 (L,R) ch, ~224 kbps - перевод Дольского
Аудио 2: 48 kHz, AC3 Dolby Digital, 2/0 (L,R) ch, ~224 kbps - english

MediaInfo

Формат : AVI
Формат/Информация : Audio Video Interleave
Размер файла : 1,45 Гбайт
Продолжительность : 1 ч. 29 м.
Общий поток : 2338 Кбит/сек
Название фильма : Eat the Rich (1987)
Программа кодирования : VirtualDubMod 1.5.10.3 | www.virtualdub-fr.org || (build 2550/release)
Библиотека кодирования : VirtualDubMod build 2550/release
Правообладатель : sasikainen
Видео
Идентификатор : 0
Формат : MPEG-4 Visual
Профиль формата : Advanced [email protected]
Параметр BVOP формата : 2
Параметр QPel формата : Нет
Параметр GMC формата : Без точки перехода
Параметр матрицы формата : Default (MPEG)
Идентификатор кодека : XVID
Идентификатор кодека/Подсказка : XviD
Продолжительность : 1 ч. 29 м.
Битрейт : 1876 Кбит/сек
Ширина : 704 пикселя
Высота : 384 пикселя
Соотношение сторон : 1,85:1
Частота кадров : 23,976 кадра/сек
Цветовое пространство : YUV
Субдискретизация насыщенности : 4:2:0
Битовая глубина : 8 бит
Тип развёртки : Прогрессивная
Метод сжатия : С потерями
Бит/(Пиксели*Кадры) : 0.289
Размер потока : 1,17 Гбайт (80%)
Библиотека кодирования : XviD 1.2.1 (UTC 2008-12-04)
Аудио #1
Идентификатор : 1
Формат : AC-3
Формат/Информация : Audio Coding 3
Расширение режима : CM (complete main)
Параметр Endianness формата : Big
Идентификатор кодека : 2000
Продолжительность : 1 ч. 29 м.
Вид битрейта : Постоянный
Битрейт : 224 Кбит/сек
Каналы : 2 канала
Расположение каналов : Front: L R
Частота : 48,0 КГц
Битовая глубина : 16 бит
Метод сжатия : С потерями
Размер потока : 143 Мбайт (10%)
Выравнивание : Разделение по промежуткам
Продолжительность промежутка : 42 мс. (1,00 видеокадр)
Время предзагрузки промежутка : 500 мс.
Заголовок : Dolskiy
Аудио #2
Идентификатор : 2
Формат : AC-3
Формат/Информация : Audio Coding 3
Расширение режима : CM (complete main)
Параметр Endianness формата : Big
Идентификатор кодека : 2000
Продолжительность : 1 ч. 29 м.
Вид битрейта : Постоянный
Битрейт : 224 Кбит/сек
Каналы : 2 канала
Расположение каналов : Front: L R
Частота : 48,0 КГц
Битовая глубина : 16 бит
Метод сжатия : С потерями
Размер потока : 143 Мбайт (10%)
Выравнивание : Разделение по промежуткам
Продолжительность промежутка : 42 мс. (1,00 видеокадр)
Время предзагрузки промежутка : 500 мс.
Заголовок : english

Скриншоты

If your ratio falls below 0.3, you will not be able to download Torrents! More about the rating.

[erzsebet.pl].t52098.torrent
Torrent: Registered   [ 2017-12-11 02:36 ]

Download .torrent

Download

15 KB

Status: checked
Completed: 16 times
Size: 1.45 GB
terms.php

#1

11-Dec-2017 01:21

[Profile]  [PM] 
Display posts:    

You cannot post new topics in this forum
You cannot reply to topics in this forum
You cannot edit your posts in this forum
You cannot delete your posts in this forum
You cannot vote in polls in this forum
You cannot attach files in this forum
You can download files in this forum
User agreement
For copyright holders
Advertise on this site

Скачайте на халяву через торрент на трекере erzsebet.pl

!ATTENTION!
The site does not give electronic versions of products, and is engaged only in a collecting and cataloguing of the references sent and published at a forum by our readers. If you are the legal owner of any submitted material and do not wish that the reference to it was in our catalogue, contact us and we shall immediately remove her. Files for an exchange on tracker are given by users of a site, and the administration does not bear the responsibility for their maintenance. The request to not fill in the files protected by copyrights, and also files of the illegal maintenance!